  0
SECTION
  2
HEADER
  9
$ACADVER
  1
AC1018
  9
$ACADMAINTVER
 70
     0
  9
$DWGCODEPAGE
  3
ANSI_1251
  9
$INSBASE
 10
0.0
 20
0.0
 30
0.0
  9
$EXTMIN
 10
0.0
 20
0.0
 30
0.0
  9
$EXTMAX
 10
210.0
 20
297.0
 30
0.0
  9
$LIMMIN
 10
0.0
 20
0.0
  9
$LIMMAX
 10
210.0
 20
297.0
  9
$ORTHOMODE
 70
     0
  9
$REGENMODE
 70
     1
  9
$FILLMODE
 70
     1
  9
$QTEXTMODE
 70
     0
  9
$MIRRTEXT
 70
     1
  9
$LTSCALE
 40
1.0
  9
$ATTMODE
 70
     1
  9
$TEXTSIZE
 40
3.5
  9
$TRACEWID
 40
1.0
  9
$TEXTSTYLE
  7
Standard
  9
$CLAYER
  8
0
  9
$CELTYPE
  6
ByLayer
  9
$CECOLOR
 62
   256
  9
$CELTSCALE
 40
1.0
  9
$DISPSILH
 70
     0
  9
$DIMSCALE
 40
1.0
  9
$DIMASZ
 40
3.0
  9
$DIMEXO
 40
1.0
  9
$DIMDLI
 40
3.75
  9
$DIMRND
 40
0.0
  9
$DIMDLE
 40
0.0
  9
$DIMEXE
 40
2.0
  9
$DIMTP
 40
0.0
  9
$DIMTM
 40
0.0
  9
$DIMTXT
 40
4.9388888889
  9
$DIMCEN
 40
2.5
  9
$DIMTSZ
 40
0.0
  9
$DIMTOL
 70
     0
  9
$DIMLIM
 70
     0
  9
$DIMTIH
 70
     1
  9
$DIMTOH
 70
     1
  9
$DIMSE1
 70
     0
  9
$DIMSE2
 70
     0
  9
$DIMTAD
 70
     1
  9
$DIMZIN
 70
     0
  9
$DIMBLK
  1

  9
$DIMASO
 70
     1
  9
$DIMSHO
 70
     1
  9
$DIMPOST
  1

  9
$DIMAPOST
  1

  9
$DIMALT
 70
     0
  9
$DIMALTD
 70
     3
  9
$DIMALTF
 40
0.0393700787
  9
$DIMLFAC
 40
1.0
  9
$DIMTOFL
 70
     1
  9
$DIMTVP
 40
0.0
  9
$DIMTIX
 70
     0
  9
$DIMSOXD
 70
     0
  9
$DIMSAH
 70
     0
  9
$DIMBLK1
  1

  9
$DIMBLK2
  1

  9
$DIMSTYLE
  2
ISO-25
  9
$DIMCLRD
 70
     0
  9
$DIMCLRE
 70
     0
  9
$DIMCLRT
 70
     0
  9
$DIMTFAC
 40
1.0
  9
$DIMGAP
 40
1.524
  9
$DIMJUST
 70
     0
  9
$DIMSD1
 70
     0
  9
$DIMSD2
 70
     0
  9
$DIMTOLJ
 70
     0
  9
$DIMTZIN
 70
     0
  9
$DIMALTZ
 70
     0
  9
$DIMALTTZ
 70
     0
  9
$DIMUPT
 70
     0
  9
$DIMDEC
 70
     0
  9
$DIMTDEC
 70
     0
  9
$DIMALTU
 70
     2
  9
$DIMALTTD
 70
     3
  9
$DIMTXSTY
  7
Standard
  9
$DIMAUNIT
 70
     0
  9
$DIMADEC
 70
     0
  9
$DIMALTRND
 40
0.0
  9
$DIMAZIN
 70
     0
  9
$DIMDSEP
 70
    44
  9
$DIMATFIT
 70
     3
  9
$DIMFRAC
 70
     0
  9
$DIMLDRBLK
  1

  9
$DIMLUNIT
 70
     2
  9
$DIMLWD
 70
    -2
  9
$DIMLWE
 70
    -2
  9
$DIMTMOVE
 70
     0
  9
$LUNITS
 70
     2
  9
$LUPREC
 70
     2
  9
$SKETCHINC
 40
1.0
  9
$FILLETRAD
 40
10.0
  9
$AUNITS
 70
     0
  9
$AUPREC
 70
     2
  9
$MENU
  1
.
  9
$ELEVATION
 40
0.0
  9
$PELEVATION
 40
0.0
  9
$THICKNESS
 40
0.0
  9
$LIMCHECK
 70
     0
  9
$CHAMFERA
 40
0.0
  9
$CHAMFERB
 40
0.0
  9
$CHAMFERC
 40
0.0
  9
$CHAMFERD
 40
0.0
  9
$SKPOLY
 70
     0
  9
$TDCREATE
 40
2460985.682943877
  9
$TDUCREATE
 40
2460985.599610544
  9
$TDUPDATE
 40
2460985.682947315
  9
$TDUUPDATE
 40
2460985.599613981
  9
$TDINDWG
 40
0.0000000116
  9
$TDUSRTIMER
 40
0.0000000116
  9
$USRTIMER
 70
     1
  9
$ANGBASE
 50
0.0
  9
$ANGDIR
 70
     0
  9
$PDMODE
 70
     0
  9
$PDSIZE
 40
-1.0
  9
$PLINEWID
 40
0.0
  9
$SPLFRAME
 70
     0
  9
$SPLINETYPE
 70
     6
  9
$SPLINESEGS
 70
     8
  9
$HANDSEED
  5
514
  9
$SURFTAB1
 70
     6
  9
$SURFTAB2
 70
     6
  9
$SURFTYPE
 70
     6
  9
$SURFU
 70
     6
  9
$SURFV
 70
     6
  9
$UCSBASE
  2

  9
$UCSNAME
  2

  9
$UCSORG
 10
0.0
 20
0.0
 30
0.0
  9
$UCSXDIR
 10
1.0
 20
0.0
 30
0.0
  9
$UCSYDIR
 10
0.0
 20
1.0
 30
0.0
  9
$UCSORTHOREF
  2

  9
$UCSORTHOVIEW
 70
     0
  9
$UCSORGTOP
 10
0.0
 20
0.0
 30
0.0
  9
$UCSORGBOTTOM
 10
0.0
 20
0.0
 30
0.0
  9
$UCSORGLEFT
 10
0.0
 20
0.0
 30
0.0
  9
$UCSORGRIGHT
 10
0.0
 20
0.0
 30
0.0
  9
$UCSORGFRONT
 10
0.0
 20
0.0
 30
0.0
  9
$UCSORGBACK
 10
0.0
 20
0.0
 30
0.0
  9
$PUCSBASE
  2

  9
$PUCSNAME
  2

  9
$PUCSORG
 10
0.0
 20
0.0
 30
0.0
  9
$PUCSXDIR
 10
1.0
 20
0.0
 30
0.0
  9
$PUCSYDIR
 10
0.0
 20
1.0
 30
0.0
  9
$PUCSORTHOREF
  2

  9
$PUCSORTHOVIEW
 70
     0
  9
$PUCSORGTOP
 10
0.0
 20
0.0
 30
0.0
  9
$PUCSORGBOTTOM
 10
0.0
 20
0.0
 30
0.0
  9
$PUCSORGLEFT
 10
0.0
 20
0.0
 30
0.0
  9
$PUCSORGRIGHT
 10
0.0
 20
0.0
 30
0.0
  9
$PUCSORGFRONT
 10
0.0
 20
0.0
 30
0.0
  9
$PUCSORGBACK
 10
0.0
 20
0.0
 30
0.0
  9
$USERI1
 70
     0
  9
$USERI2
 70
     0
  9
$USERI3
 70
     0
  9
$USERI4
 70
     0
  9
$USERI5
 70
     0
  9
$USERR1
 40
0.0
  9
$USERR2
 40
0.0
  9
$USERR3
 40
0.0
  9
$USERR4
 40
0.0
  9
$USERR5
 40
0.0
  9
$WORLDVIEW
 70
     1
  9
$SHADEDGE
 70
     3
  9
$SHADEDIF
 70
    70
  9
$TILEMODE
 70
     1
  9
$MAXACTVP
 70
    64
  9
$PINSBASE
 10
0.0
 20
0.0
 30
0.0
  9
$PLIMCHECK
 70
     0
  9
$PEXTMIN
 10
1.0000000000E+20
 20
1.0000000000E+20
 30
1.0000000000E+20
  9
$PEXTMAX
 10
-1.0000000000E+20
 20
-1.0000000000E+20
 30
-1.0000000000E+20
  9
$PLIMMIN
 10
0.0
 20
0.0
  9
$PLIMMAX
 10
420.0
 20
297.0
  9
$UNITMODE
 70
     0
  9
$VISRETAIN
 70
     1
  9
$PLINEGEN
 70
     0
  9
$PSLTSCALE
 70
     1
  9
$TREEDEPTH
 70
  3020
  9
$CMLSTYLE
  2
Standard
  9
$CMLJUST
 70
     0
  9
$CMLSCALE
 40
20.0
  9
$PROXYGRAPHICS
 70
     1
  9
$MEASUREMENT
 70
     1
  9
$CELWEIGHT
370
    -1
  9
$ENDCAPS
280
     0
  9
$JOINSTYLE
280
     0
  9
$LWDISPLAY
290
     1
  9
$INSUNITS
 70
     4
  9
$HYPERLINKBASE
  1

  9
$STYLESHEET
  1

  9
$XEDIT
290
     1
  9
$CEPSNTYPE
380
     0
  9
$PSTYLEMODE
290
     1
  9
$FINGERPRINTGUID
  2
{89218740-43ea-4839-89e0-ae3d5c8ce96d}
  9
$VERSIONGUID
  2
{FAEB1C32-E019-11D5-929B-00C0DF256EC4}
  9
$EXTNAMES
290
     1
  9
$PSVPSCALE
 40
0.0
  9
$OLESTARTUP
290
     0
  9
$SORTENTS
280
   127
  9
$INDEXCTL
280
     0
  9
$HIDETEXT
280
     1
  9
$XCLIPFRAME
290
     0
  9
$HALOGAP
280
     0
  9
$OBSCOLOR
 70
   257
  9
$OBSLTYPE
280
     0
  9
$INTERSECTIONDISPLAY
280
     0
  9
$INTERSECTIONCOLOR
 70
   257
  9
$DIMASSOC
280
     2
  9
$PROJECTNAME
  1

  0
ENDSEC
  0
SECTION
  2
CLASSES
  0
CLASS
  1
ACDBDICTIONARYWDFLT
  2
AcDbDictionaryWithDefault
  3
ObjectDBX Classes
 90
        0
 91
        3
280
     0
281
     0
  0
CLASS
  1
VISUALSTYLE
  2
AcDbVisualStyle
  3
ObjectDBX Classes
 90
     4095
 91
        3
280
     0
281
     0
  0
CLASS
  1
MATERIAL
  2
AcDbMaterial
  3
ObjectDBX Classes
 90
     1153
 91
        3
280
     0
281
     0
  0
CLASS
  1
SCALE
  2
AcDbScale
  3
ObjectDBX Classes
 90
     1153
 91
        3
280
     0
281
     0
  0
CLASS
  1
TABLESTYLE
  2
AcDbTableStyle
  3
ObjectDBX Classes
 90
     4095
 91
        3
280
     0
281
     0
  0
CLASS
  1
MLEADERSTYLE
  2
AcDbMLeaderStyle
  3
ACDB_MLEADERSTYLE_CLASS
 90
     4095
 91
        3
280
     0
281
     0
  0
CLASS
  1
SUN
  2
AcDbSun
  3
SCENEOE
 90
     1153
 91
        3
280
     0
281
     0
  0
CLASS
  1
DICTIONARYVAR
  2
AcDbDictionaryVar
  3
ObjectDBX Classes
 90
        0
 91
        3
280
     0
281
     0
  0
CLASS
  1
CELLSTYLEMAP
  2
AcDbCellStyleMap
  3
ObjectDBX Classes
 90
     1152
 91
        3
280
     0
281
     0
  0
ENDSEC
  0
SECTION
  2
TABLES
  0
TABLE
  2
VPORT
  5
8
330
0
100
AcDbSymbolTable
 70
     1
  0
VPORT
  5
29
330
8
100
AcDbSymbolTableRecord
100
AcDbViewportTableRecord
  2
*Active
 70
     0
 10
0.0
 20
0.0
 11
1.0
 21
1.0
 12
105.0
 22
148.5
 13
0.0
 23
0.0
 14
10.0
 24
10.0
 15
10.0
 25
10.0
 16
0.0
 26
0.0
 36
1.0
 17
0.0
 27
0.0
 37
0.0
 40
297.0
 41
0.7070707071
 42
50.0
 43
0.0
 44
0.0
 50
0.0
 51
0.0
 71
     0
 72
  2000
 73
     1
 74
     3
 75
     0
 76
     0
 77
     0
 78
     0
281
     0
 65
     1
110
0.0
120
0.0
130
0.0
111
1.0
121
0.0
131
0.0
112
0.0
122
1.0
132
0.0
 79
     0
146
0.0
  0
ENDTAB
  0
TABLE
  2
LTYPE
  5
5
330
0
100
AcDbSymbolTable
 70
     6
  0
LTYPE
  5
14
330
5
100
AcDbSymbolTableRecord
100
AcDbLinetypeTableRecord
  2
ByBlock
 70
     0
  3

 72
    65
 73
     0
 40
0.0
  0
LTYPE
  5
15
330
5
100
AcDbSymbolTableRecord
100
AcDbLinetypeTableRecord
  2
ByLayer
 70
     0
  3

 72
    65
 73
     0
 40
0.0
  0
LTYPE
  5
16
330
5
100
AcDbSymbolTableRecord
100
AcDbLinetypeTableRecord
  2
Continuous
 70
     0
  3
Solid line
 72
    65
 73
     0
 40
0.0
  0
LTYPE
  5
6E
330
5
100
AcDbSymbolTableRecord
100
AcDbLinetypeTableRecord
  2
HIDDEN
 70
     0
  3
Hidden __ __ __ __ __ __ __ __ __ __ __ __ __ __
 72
    65
 73
     2
 40
1.905
 49
1.27
 74
     0
 49
-0.635
 74
     0
  0
LTYPE
  5
6F
330
5
100
AcDbSymbolTableRecord
100
AcDbLinetypeTableRecord
  2
PHANTOM
 70
     0
  3
Phantom ______  __  __  ______  __  __  ______
 72
    65
 73
     6
 40
12.7
 49
6.35
 74
     0
 49
-1.27
 74
     0
 49
1.27
 74
     0
 49
-1.27
 74
     0
 49
1.27
 74
     0
 49
-1.27
 74
     0
  0
LTYPE
  5
70
330
5
100
AcDbSymbolTableRecord
100
AcDbLinetypeTableRecord
  2
CENTER
 70
     0
  3
Center ____ _ ____ _ ____ _ ____ _ ____ _ ____
 72
    65
 73
     4
 40
10.16
 49
6.35
 74
     0
 49
-1.27
 74
     0
 49
1.27
 74
     0
 49
-1.27
 74
     0
  0
LTYPE
  5
71
330
5
100
AcDbSymbolTableRecord
100
AcDbLinetypeTableRecord
  2
CENTERX2
 70
     0
  3
Center (2x) ________  __  ________  __  _____
 72
    65
 73
     4
 40
20.32
 49
12.7
 74
     0
 49
-2.54
 74
     0
 49
2.54
 74
     0
 49
-2.54
 74
     0
  0
LTYPE
  5
72
330
5
100
AcDbSymbolTableRecord
100
AcDbLinetypeTableRecord
  2
DOT2
 70
     0
  3
Dot (.5x) ........................................
 72
    65
 73
     2
 40
0.635
 49
0.0
 74
     0
 49
-0.635
 74
     0
  0
ENDTAB
  0
TABLE
  2
LAYER
  5
2
330
0
100
AcDbSymbolTable
 70
     1
  0
LAYER
  5
10
330
2
100
AcDbSymbolTableRecord
100
AcDbLayerTableRecord
  2
0
 70
     0
 62
     7
  6
Continuous
370
    -3
390
F
  0
ENDTAB
  0
TABLE
  2
STYLE
  5
3
330
0
100
AcDbSymbolTable
 70
     2
  0
STYLE
  5
11
330
3
100
AcDbSymbolTableRecord
100
AcDbTextStyleTableRecord
  2
Standard
 70
     0
 40
0.0
 41
1.0
 50
0.0
 71
     0
 42
3.5
  3
txt
  4

  0
STYLE
  5
AF
330
3
100
AcDbSymbolTableRecord
100
AcDbTextStyleTableRecord
  2
SLDTEXTSTYLE0
 70
     0
 40
0.0
 41
0.7
 50
0.0
 71
     0
 42
3.5
  3
TXT
  4

  0
ENDTAB
  0
TABLE
  2
VIEW
  5
6
330
0
100
AcDbSymbolTable
 70
     0
  0
ENDTAB
  0
TABLE
  2
UCS
  5
7
330
0
100
AcDbSymbolTable
 70
     0
  0
ENDTAB
  0
TABLE
  2
APPID
  5
9
330
0
100
AcDbSymbolTable
 70
     2
  0
APPID
  5
12
330
9
100
AcDbSymbolTableRecord
100
AcDbRegAppTableRecord
  2
ACAD
 70
     0
  0
APPID
  5
50C
330
9
100
AcDbSymbolTableRecord
100
AcDbRegAppTableRecord
  2
ACAD_MLEADERVER
 70
     0
  0
ENDTAB
  0
TABLE
  2
DIMSTYLE
  5
A
330
0
100
AcDbSymbolTable
 70
     4
100
AcDbDimStyleTable
  0
DIMSTYLE
105
27
330
A
100
AcDbSymbolTableRecord
100
AcDbDimStyleTableRecord
  2
ISO-25
 70
     0
 41
2.5
 42
0.625
 43
3.75
 44
1.25
 73
     0
 74
     0
 77
     1
 78
     8
140
2.5
141
2.5
143
0.0393700787
147
0.625
171
     3
172
     1
178
     0
271
     2
272
     2
274
     3
278
    44
283
     0
284
     8
340
11
  0
DIMSTYLE
105
B0
102
{ACAD_REACTORS
330
AE
330
C1
330
D0
330
114
330
126
330
14B
330
15C
330
1FA
330
20C
330
21E
330
230
330
242
330
253
330
264
102
}
330
A
100
AcDbSymbolTableRecord
100
AcDbDimStyleTableRecord
  2
SLDDIMSTYLE0
 70
     0
 41
3.0
 44
0.0
 45
0.000000001
 73
     0
 74
     0
 77
     2
 78
    12
 79
     3
140
4.7907222222
143
0.0393700787
147
1.1976805556
148
0.000000001
170
     1
171
     3
173
     1
178
     0
271
     0
272
     0
276
     2
284
    12
340
AF
  0
DIMSTYLE
105
138
102
{ACAD_REACTORS
330
137
330
276
102
}
330
A
100
AcDbSymbolTableRecord
100
AcDbDimStyleTableRecord
  2
SLDDIMSTYLE1
 70
     0
 41
3.0
 44
0.0
 45
0.000000001
 78
    12
 79
     3
140
4.7907222222
141
0.0
143
0.0393700787
147
1.1976805556
148
0.000000001
170
     1
171
     3
172
     1
173
     1
178
     0
271
     0
272
     0
276
     2
284
    12
340
AF
  0
DIMSTYLE
105
16E
102
{ACAD_REACTORS
330
16D
330
289
102
}
330
A
100
AcDbSymbolTableRecord
100
AcDbDimStyleTableRecord
  2
SLDDIMSTYLE2
 70
     0
 41
3.0
 44
0.0
 45
0.000000001
 78
    12
 79
     3
140
4.7907222222
141
0.0
143
0.0393700787
147
1.1976805556
148
0.000000001
170
     1
171
     3
173
     1
178
     0
271
     0
272
     0
276
     2
284
    12
340
AF
  0
ENDTAB
  0
TABLE
  2
BLOCK_RECORD
  5
1
330
0
100
AcDbSymbolTable
 70
    27
  0
BLOCK_RECORD
  5
1F
330
1
100
AcDbSymbolTableRecord
100
AcDbBlockTableRecord
  2
*Model_Space
340
22
  0
BLOCK_RECORD
  5
1B
330
1
100
AcDbSymbolTableRecord
100
AcDbBlockTableRecord
  2
*Paper_Space
340
1E
  0
BLOCK_RECORD
  5
23
330
1
100
AcDbSymbolTableRecord
100
AcDbBlockTableRecord
  2
*Paper_Space0
340
26
  0
BLOCK_RECORD
  5
B1
330
1
100
AcDbSymbolTableRecord
100
AcDbBlockTableRecord
  2
_D
340
0
  0
BLOCK_RECORD
  5
C2
330
1
100
AcDbSymbolTableRecord
100
AcDbBlockTableRecord
  2
_D_1
340
0
  0
BLOCK_RECORD
  5
D1
330
1
100
AcDbSymbolTableRecord
100
AcDbBlockTableRecord
  2
_D_2
340
0
  0
BLOCK_RECORD
  5
115
330
1
100
AcDbSymbolTableRecord
100
AcDbBlockTableRecord
  2
_D_3
340
0
  0
BLOCK_RECORD
  5
127
330
1
100
AcDbSymbolTableRecord
100
AcDbBlockTableRecord
  2
_D_4
340
0
  0
BLOCK_RECORD
  5
139
330
1
100
AcDbSymbolTableRecord
100
AcDbBlockTableRecord
  2
_D_5
340
0
  0
BLOCK_RECORD
  5
14C
330
1
100
AcDbSymbolTableRecord
100
AcDbBlockTableRecord
  2
_D_6
340
0
  0
BLOCK_RECORD
  5
15D
330
1
100
AcDbSymbolTableRecord
100
AcDbBlockTableRecord
  2
_D_7
340
0
  0
BLOCK_RECORD
  5
16F
330
1
100
AcDbSymbolTableRecord
100
AcDbBlockTableRecord
  2
_D_8
340
0
  0
BLOCK_RECORD
  5
17E
330
1
100
AcDbSymbolTableRecord
100
AcDbBlockTableRecord
  2
SW_CENTERMARKSYMBOL_0
340
0
102
{BLKREFS
331
189
102
}
  0
BLOCK_RECORD
  5
18A
330
1
100
AcDbSymbolTableRecord
100
AcDbBlockTableRecord
  2
SW_CENTERMARKSYMBOL_1
340
0
102
{BLKREFS
331
195
102
}
  0
BLOCK_RECORD
  5
196
330
1
100
AcDbSymbolTableRecord
100
AcDbBlockTableRecord
  2
SW_CENTERMARKSYMBOL_2
340
0
102
{BLKREFS
331
1A1
102
}
  0
BLOCK_RECORD
  5
1FB
330
1
100
AcDbSymbolTableRecord
100
AcDbBlockTableRecord
  2
_D_9
340
0
  0
BLOCK_RECORD
  5
20D
330
1
100
AcDbSymbolTableRecord
100
AcDbBlockTableRecord
  2
_D_10
340
0
  0
BLOCK_RECORD
  5
21F
330
1
100
AcDbSymbolTableRecord
100
AcDbBlockTableRecord
  2
_D_11
340
0
  0
BLOCK_RECORD
  5
231
330
1
100
AcDbSymbolTableRecord
100
AcDbBlockTableRecord
  2
_D_12
340
0
  0
BLOCK_RECORD
  5
243
330
1
100
AcDbSymbolTableRecord
100
AcDbBlockTableRecord
  2
_D_13
340
0
  0
BLOCK_RECORD
  5
254
330
1
100
AcDbSymbolTableRecord
100
AcDbBlockTableRecord
  2
_D_14
340
0
  0
BLOCK_RECORD
  5
265
330
1
100
AcDbSymbolTableRecord
100
AcDbBlockTableRecord
  2
_D_15
340
0
  0
BLOCK_RECORD
  5
277
330
1
100
AcDbSymbolTableRecord
100
AcDbBlockTableRecord
  2
_D_16
340
0
  0
BLOCK_RECORD
  5
28A
330
1
100
AcDbSymbolTableRecord
100
AcDbBlockTableRecord
  2
_D_17
340
0
  0
BLOCK_RECORD
  5
299
330
1
100
AcDbSymbolTableRecord
100
AcDbBlockTableRecord
  2
SW_CENTERMARKSYMBOL_3
340
0
102
{BLKREFS
331
2A4
102
}
  0
BLOCK_RECORD
  5
444
330
1
100
AcDbSymbolTableRecord
100
AcDbBlockTableRecord
  2
SW_CENTERMARKSYMBOL_4
340
0
102
{BLKREFS
331
44F
102
}
  0
BLOCK_RECORD
  5
450
330
1
100
AcDbSymbolTableRecord
100
AcDbBlockTableRecord
  2
SW_CENTERMARKSYMBOL_5
340
0
102
{BLKREFS
331
45B
102
}
  0
BLOCK_RECORD
  5
45C
330
1
100
AcDbSymbolTableRecord
100
AcDbBlockTableRecord
  2
SW_CENTERMARKSYMBOL_6
340
0
102
{BLKREFS
331
467
102
}
  0
BLOCK_RECORD
  5
4FB
330
1
100
AcDbSymbolTableRecord
100
AcDbBlockTableRecord
  2
SW_CENTERMARKSYMBOL_7
340
0
102
{BLKREFS
331
506
102
}
  0
ENDTAB
  0
ENDSEC
  0
SECTION
  2
BLOCKS
  0
BLOCK
  5
20
330
1F
100
AcDbEntity
  8
0
100
AcDbBlockBegin
  2
*Model_Space
 70
     0
 10
0.0
 20
0.0
 30
0.0
  3
*Model_Space
  1

  0
ENDBLK
  5
21
330
1F
100
AcDbEntity
  8
0
100
AcDbBlockEnd
  0
BLOCK
  5
1C
330
1B
100
AcDbEntity
 67
     1
  8
0
100
AcDbBlockBegin
  2
*Paper_Space
 70
     0
 10
0.0
 20
0.0
 30
0.0
  3
*Paper_Space
  1

  0
ENDBLK
  5
1D
330
1B
100
AcDbEntity
 67
     1
  8
0
100
AcDbBlockEnd
  0
BLOCK
  5
24
330
23
100
AcDbEntity
  8
0
100
AcDbBlockBegin
  2
*Paper_Space0
 70
     0
 10
0.0
 20
0.0
 30
0.0
  3
*Paper_Space0
  1

  0
ENDBLK
  5
25
330
23
100
AcDbEntity
  8
0
100
AcDbBlockEnd
  0
BLOCK
  5
B2
330
B1
100
AcDbEntity
  8
0
100
AcDbBlockBegin
  2
_D
 70
     0
 10
0.0
 20
0.0
 30
0.0
  3
_D
  1

  0
SOLID
  5
B4
330
B1
100
AcDbEntity
  8
0
  6
Continuous
 62
     7
420
 16777215
370
    18
100
AcDbTrace
 10
-476.8085999834
 20
456.6420920617
 30
0.0
 11
-473.8085999834
 21
455.8420920617
 31
0.0
 12
-473.8085999834
 22
457.4420920617
 32
0.0
 13
-473.8085999834
 23
457.4420920617
 33
0.0
  0
SOLID
  5
B5
330
B1
100
AcDbEntity
  8
0
  6
Continuous
 62
     7
420
 16777215
370
    18
100
AcDbTrace
 10
-32.8261618805
 20
456.6420920617
 30
0.0
 11
-35.8261618805
 21
457.4420920617
 31
0.0
 12
-35.8261618805
 22
455.8420920617
 32
0.0
 13
-35.8261618805
 23
455.8420920617
 33
0.0
  0
LINE
  5
B6
330
B1
100
AcDbEntity
  8
0
  6
Continuous
 62
     7
420
 16777215
370
    18
100
AcDbLine
 10
-230.5406497685
 20
455.865472862
 30
0.0
 11
-231.7342146193
 21
455.865472862
 31
0.0
  0
LINE
  5
B7
330
B1
100
AcDbEntity
  8
0
  6
Continuous
 62
     7
420
 16777215
370
    18
100
AcDbLine
 10
-231.7342146193
 20
455.865472862
 30
0.0
 11
-231.7342146193
 21
449.9113679207
 31
0.0
  0
LINE
  5
B8
330
B1
100
AcDbEntity
  8
0
  6
Continuous
 62
     7
420
 16777215
370
    18
100
AcDbLine
 10
-231.7342146193
 20
449.9113679207
 30
0.0
 11
-230.5406497685
 21
449.9113679207
 31
0.0
  0
LINE
  5
B9
330
B1
100
AcDbEntity
  8
0
  6
Continuous
 62
     7
420
 16777215
370
    18
100
AcDbLine
 10
-218.2757424084
 20
455.865472862
 30
0.0
 11
-217.0821775575
 21
455.865472862
 31
0.0
  0
LINE
  5
BA
330
B1
100
AcDbEntity
  8
0
  6
Continuous
 62
     7
420
 16777215
370
    18
100
AcDbLine
 10
-217.0821775575
 20
455.865472862
 30
0.0
 11
-217.0821775575
 21
449.9113679207
 31
0.0
  0
LINE
  5
BB
330
B1
100
AcDbEntity
  8
0
  6
Continuous
 62
     7
420
 16777215
370
    18
100
AcDbLine
 10
-217.0821775575
 20
449.9113679207
 30
0.0
 11
-218.2757424084
 21
449.9113679207
 31
0.0
  0
LINE
  5
BC
330
B1
100
AcDbEntity
  8
0
  6
Continuous
 62
     7
420
 16777215
370
    18
100
AcDbLine
 10
-476.8085999834
 20
413.8781330201
 30
0.0
 11
-476.8085999834
 21
458.6420920617
 31
0.0
  0
LINE
  5
BD
330
B1
100
AcDbEntity
  8
0
  6
Continuous
 62
     7
420
 16777215
370
    18
100
AcDbLine
 10
-32.8261618805
 20
413.8781330201
 30
0.0
 11
-32.8261618805
 21
458.6420920617
 31
0.0
  0
LINE
  5
BE
330
B1
100
AcDbEntity
  8
0
  6
Continuous
 62
     7
420
 16777215
370
    18
100
AcDbLine
 10
-476.8085999834
 20
456.6420920617
 30
0.0
 11
-32.8261618805
 21
456.6420920617
 31
0.0
  0
MTEXT
  5
BF
330
B1
100
AcDbEntity
  8
0
  6
Continuous
 62
     7
420
 16777215
370
    18
100
AcDbMText
 10
-229.1824554918
 20
461.4361045153
 30
0.0
 40
3.7041666667
 41
0.0
 71
     1
 72
     1
  1
444
  7
SLDTEXTSTYLE0
 73
     1
 44
1.0
  0
MTEXT
  5
C0
330
B1
100
AcDbEntity
  8
0
  6
Continuous
 62
     7
420
 16777215
370
    18
100
AcDbMText
 10
-230.5406497685
 20
454.6862896734
 30
0.0
 40
3.7041666667
 41
0.0
 71
     1
 72
     1
  1
17,48
  7
SLDTEXTSTYLE0
 73
     1
 44
1.0
  0
ENDBLK
  5
B3
330
B1
100
AcDbEntity
  8
0
100
AcDbBlockEnd
  0
BLOCK
  5
C3
330
C2
100
AcDbEntity
  8
0
100
AcDbBlockBegin
  2
_D_1
 70
     0
 10
0.0
 20
0.0
 30
0.0
  3
_D_1
  1

  0
SOLID
  5
C5
330
C2
100
AcDbEntity
  8
0
  6
Continuous
 62
     7
420
 16777215
370
    18
100
AcDbTrace
 10
-461.8317025925
 20
106.1595227651
 30
0.0
 11
-458.8317025925
 21
105.3595227651
 31
0.0
 12
-458.8317025925
 22
106.9595227651
 32
0.0
 13
-458.8317025925
 23
106.9595227651
 33
0.0
  0
SOLID
  5
C6
330
C2
100
AcDbEntity
  8
0
  6
Continuous
 62
     7
420
 16777215
370
    18
100
AcDbTrace
 10
-47.8030592714
 20
106.1595227651
 30
0.0
 11
-50.8030592714
 21
106.9595227651
 31
0.0
 12
-50.8030592714
 22
105.3595227651
 32
0.0
 13
-50.8030592714
 23
105.3595227651
 33
0.0
  0
LINE
  5
C7
330
C2
100
AcDbEntity
  8
0
  6
Continuous
 62
     7
420
 16777215
370
    18
100
AcDbLine
 10
-261.1453322589
 20
105.3829035655
 30
0.0
 11
-262.3388971097
 21
105.3829035655
 31
0.0
  0
LINE
  5
C8
330
C2
100
AcDbEntity
  8
0
  6
Continuous
 62
     7
420
 16777215
370
    18
100
AcDbLine
 10
-262.3388971097
 20
105.3829035655
 30
0.0
 11
-262.3388971097
 21
99.4287986241
 31
0.0
  0
LINE
  5
C9
330
C2
100
AcDbEntity
  8
0
  6
Continuous
 62
     7
420
 16777215
370
    18
100
AcDbLine
 10
-262.3388971097
 20
99.4287986241
 30
0.0
 11
-261.1453322589
 21
99.4287986241
 31
0.0
  0
LINE
  5
CA
330
C2
100
AcDbEntity
  8
0
  6
Continuous
 62
     7
420
 16777215
370
    18
100
AcDbLine
 10
-248.4894296049
 20
105.3829035655
 30
0.0
 11
-247.2958647541
 21
105.3829035655
 31
0.0
  0
LINE
  5
CB
330
C2
100
AcDbEntity
  8
0
  6
Continuous
 62
     7
420
 16777215
370
    18
100
AcDbLine
 10
-247.2958647541
 20
105.3829035655
 30
0.0
 11
-247.2958647541
 21
99.4287986241
 31
0.0
  0
LINE
  5
CC
330
C2
100
AcDbEntity
  8
0
  6
Continuous
 62
     7
420
 16777215
370
    18
100
AcDbLine
 10
-247.2958647541
 20
99.4287986241
 30
0.0
 11
-248.4894296049
 21
99.4287986241
 31
0.0
  0
LINE
  5
CD
330
C2
100
AcDbEntity
  8
0
  6
Continuous
 62
     7
420
 16777215
370
    18
100
AcDbLine
 10
-461.8317025925
 20
106.1595227651
 30
0.0
 11
-47.8030592714
 21
106.1595227651
 31
0.0
  0
MTEXT
  5
CE
330
C2
100
AcDbEntity
  8
0
  6
Continuous
 62
     7
420
 16777215
370
    18
100
AcDbMText
 10
-259.0565941192
 20
110.9535352188
 30
0.0
 40
3.7041666667
 41
0.0
 71
     1
 72
     1
  1
414
  7
SLDTEXTSTYLE0
 73
     1
 44
1.0
  0
MTEXT
  5
CF
330
C2
100
AcDbEntity
  8
0
  6
Continuous
 62
     7
420
 16777215
370
    18
100
AcDbMText
 10
-261.1453322589
 20
104.2037203769
 30
0.0
 40
3.7041666667
 41
0.0
 71
     1
 72
     1
  1
16,30
  7
SLDTEXTSTYLE0
 73
     1
 44
1.0
  0
ENDBLK
  5
C4
330
C2
100
AcDbEntity
  8
0
100
AcDbBlockEnd
  0
BLOCK
  5
D2
330
D1
100
AcDbEntity
  8
0
100
AcDbBlockBegin
  2
_D_2
 70
     0
 10
0.0
 20
0.0
 30
0.0
  3
_D_2
  1

  0
SOLID
  5
D4
330
D1
100
AcDbEntity
  8
0
  6
Continuous
 62
     7
420
 16777215
370
    18
100
AcDbTrace
 10
-514.3350590249
 20
21.0897826575
 30
0.0
 11
-513.5350590249
 21
24.0897826575
 31
0.0
 12
-515.1350590249
 22
24.0897826575
 32
0.0
 13
-515.1350590249
 23
24.0897826575
 33
0.0
  0
SOLID
  5
D5
330
D1
100
AcDbEntity
  8
0
  6
Continuous
 62
     7
420
 16777215
370
    18
100
AcDbTrace
 10
-514.3350590249
 20
419.1081330201
 30
0.0
 11
-515.1350590249
 21
416.1081330201
 31
0.0
 12
-513.5350590249
 22
416.1081330201
 32
0.0
 13
-513.5350590249
 23
416.1081330201
 33
0.0
  0
LINE
  5
D6
330
D1
100
AcDbEntity
  8
0
  6
Continuous
 62
     7
420
 16777215
370
    18
100
AcDbLine
 10
-513.5584398253
 20
214.1928704924
 30
0.0
 11
-513.5584398253
 21
212.9993056416
 31
0.0
  0
LINE
  5
D7
330
D1
100
AcDbEntity
  8
0
  6
Continuous
 62
     7
420
 16777215
370
    18
100
AcDbLine
 10
-513.5584398253
 20
212.9993056416
 30
0.0
 11
-507.6043348839
 21
212.9993056416
 31
0.0
  0
LINE
  5
D8
330
D1
100
AcDbEntity
  8
0
  6
Continuous
 62
     7
420
 16777215
370
    18
100
AcDbLine
 10
-507.6043348839
 20
212.9993056416
 30
0.0
 11
-507.6043348839
 21
214.1928704924
 31
0.0
  0
LINE
  5
D9
330
D1
100
AcDbEntity
  8
0
  6
Continuous
 62
     7
420
 16777215
370
    18
100
AcDbLine
 10
-513.5584398253
 20
226.0050461165
 30
0.0
 11
-513.5584398253
 21
227.1986109673
 31
0.0
  0
LINE
  5
DA
330
D1
100
AcDbEntity
  8
0
  6
Continuous
 62
     7
420
 16777215
370
    18
100
AcDbLine
 10
-513.5584398253
 20
227.1986109673
 30
0.0
 11
-507.6043348839
 21
227.1986109673
 31
0.0
  0
LINE
  5
DB
330
D1
100
AcDbEntity
  8
0
  6
Continuous
 62
     7
420
 16777215
370
    18
100
AcDbLine
 10
-507.6043348839
 20
227.1986109673
 30
0.0
 11
-507.6043348839
 21
226.0050461165
 31
0.0
  0
LINE
  5
DC
330
D1
100
AcDbEntity
  8
0
  6
Continuous
 62
     7
420
 16777215
370
    18
100
AcDbLine
 10
-465.8317025925
 20
21.0897826575
 30
0.0
 11
-516.3350590249
 21
21.0897826575
 31
0.0
  0
LINE
  5
DD
330
D1
100
AcDbEntity
  8
0
  6
Continuous
 62
     7
420
 16777215
370
    18
100
AcDbLine
 10
-471.5713560438
 20
419.1081330201
 30
0.0
 11
-516.3350590249
 21
419.1081330201
 31
0.0
  0
LINE
  5
DE
330
D1
100
AcDbEntity
  8
0
  6
Continuous
 62
     7
420
 16777215
370
    18
100
AcDbLine
 10
-514.3350590249
 20
21.0897826575
 30
0.0
 11
-514.3350590249
 21
419.1081330201
 31
0.0
  0
MTEXT
  5
DF
330
D1
100
AcDbEntity
  8
0
  6
Continuous
 62
     7
420
 16777215
370
    18
100
AcDbMText
 10
-519.1290714786
 20
215.5236261434
 30
0.0
 40
3.7041666667
 41
0.0
 71
     1
 72
     1
  1
398
  7
SLDTEXTSTYLE0
 11
6.123233995736766E-17
 21
1.0
 31
0.0
 73
     1
 44
1.0
  0
MTEXT
  5
E0
330
D1
100
AcDbEntity
  8
0
  6
Continuous
 62
     7
420
 16777215
370
    18
100
AcDbMText
 10
-512.3792566367
 20
214.1928704924
 30
0.0
 40
3.7041666667
 41
0.0
 71
     1
 72
     1
  1
15,67
  7
SLDTEXTSTYLE0
 11
6.123233995736766E-17
 21
1.0
 31
0.0
 73
     1
 44
1.0
  0
ENDBLK
  5
D3
330
D1
100
AcDbEntity
  8
0
100
AcDbBlockEnd
  0
BLOCK
  5
116
330
115
100
AcDbEntity
  8
0
100
AcDbBlockBegin
  2
_D_3
 70
     0
 10
0.0
 20
0.0
 30
0.0
  3
_D_3
  1

  0
SOLID
  5
118
330
115
100
AcDbEntity
  8
0
  6
Continuous
 62
     7
420
 16777215
370
    18
100
AcDbTrace
 10
-514.3350590249
 20
-124.2643496563
 30
0.0
 11
-515.1350590249
 21
-127.2643496563
 31
0.0
 12
-513.5350590249
 22
-127.2643496563
 32
0.0
 13
-513.5350590249
 23
-127.2643496563
 33
0.0
  0
SOLID
  5
119
330
115
100
AcDbEntity
  8
0
  6
Continuous
 62
     7
420
 16777215
370
    18
100
AcDbTrace
 10
-514.3350590249
 20
-165.7243496563
 30
0.0
 11
-513.5350590249
 21
-162.7243496563
 31
0.0
 12
-515.1350590249
 22
-162.7243496563
 32
0.0
 13
-515.1350590249
 23
-162.7243496563
 33
0.0
  0
LINE
  5
11A
330
115
100
AcDbEntity
  8
0
  6
Continuous
 62
     7
420
 16777215
370
    18
100
AcDbLine
 10
-513.5584398253
 20
-259.492471245
 30
0.0
 11
-513.5584398253
 21
-260.6860360958
 31
0.0
  0
LINE
  5
11B
330
115
100
AcDbEntity
  8
0
  6
Continuous
 62
     7
420
 16777215
370
    18
100
AcDbLine
 10
-513.5584398253
 20
-260.6860360958
 30
0.0
 11
-507.6043348839
 21
-260.6860360958
 31
0.0
  0
LINE
  5
11C
330
115
100
AcDbEntity
  8
0
  6
Continuous
 62
     7
420
 16777215
370
    18
100
AcDbLine
 10
-507.6043348839
 20
-260.6860360958
 30
0.0
 11
-507.6043348839
 21
-259.492471245
 31
0.0
  0
LINE
  5
11D
330
115
100
AcDbEntity
  8
0
  6
Continuous
 62
     7
420
 16777215
370
    18
100
AcDbLine
 10
-513.5584398253
 20
-250.300650847
 30
0.0
 11
-513.5584398253
 21
-249.1070859962
 31
0.0
  0
LINE
  5
11E
330
115
100
AcDbEntity
  8
0
  6
Continuous
 62
     7
420
 16777215
370
    18
100
AcDbLine
 10
-513.5584398253
 20
-249.1070859962
 30
0.0
 11
-507.6043348839
 21
-249.1070859962
 31
0.0
  0
LINE
  5
11F
330
115
100
AcDbEntity
  8
0
  6
Continuous
 62
     7
420
 16777215
370
    18
100
AcDbLine
 10
-507.6043348839
 20
-249.1070859962
 30
0.0
 11
-507.6043348839
 21
-250.300650847
 31
0.0
  0
LINE
  5
120
330
115
100
AcDbEntity
  8
0
  6
Continuous
 62
     7
420
 16777215
370
    18
100
AcDbLine
 10
-452.3173809319
 20
-124.2643496563
 30
0.0
 11
-516.3350590249
 21
-124.2643496563
 31
0.0
  0
LINE
  5
121
330
115
100
AcDbEntity
  8
0
  6
Continuous
 62
     7
420
 16777215
370
    18
100
AcDbLine
 10
-452.3173809319
 20
-165.7243496563
 30
0.0
 11
-516.3350590249
 21
-165.7243496563
 31
0.0
  0
LINE
  5
122
330
115
100
AcDbEntity
  8
0
  6
Continuous
 62
     7
420
 16777215
370
    18
100
AcDbLine
 10
-514.3350590249
 20
-124.2643496563
 30
0.0
 11
-514.3350590249
 21
-165.7243496563
 31
0.0
  0
LINE
  5
123
330
115
100
AcDbEntity
  8
0
  6
Continuous
 62
     7
420
 16777215
370
    18
100
AcDbLine
 10
-514.3350590249
 20
-165.7243496563
 30
0.0
 11
-514.3350590249
 21
-261.8796009467
 31
0.0
  0
MTEXT
  5
124
330
115
100
AcDbEntity
  8
0
  6
Continuous
 62
     7
420
 16777215
370
    18
100
AcDbMText
 10
-519.1290714786
 20
-257.5443544321
 30
0.0
 40
3.7041666667
 41
0.0
 71
     1
 72
     1
  1
41
  7
SLDTEXTSTYLE0
 11
-7.044195017643634E-15
 21
1.0
 31
0.0
 73
     1
 44
1.0
  0
MTEXT
  5
125
330
115
100
AcDbEntity
  8
0
  6
Continuous
 62
     7
420
 16777215
370
    18
100
AcDbMText
 10
-512.3792566367
 20
-259.492471245
 30
0.0
 40
3.7041666667
 41
0.0
 71
     1
 72
     1
  1
1,63
  7
SLDTEXTSTYLE0
 11
-7.044195017643634E-15
 21
1.0
 31
0.0
 73
     1
 44
1.0
  0
ENDBLK
  5
117
330
115
100
AcDbEntity
  8
0
100
AcDbBlockEnd
  0
BLOCK
  5
128
330
127
100
AcDbEntity
  8
0
100
AcDbBlockBegin
  2
_D_4
 70
     0
 10
0.0
 20
0.0
 30
0.0
  3
_D_4
  1

  0
SOLID
  5
12A
330
127
100
AcDbEntity
  8
0
  6
Continuous
 62
     7
420
 16777215
370
    18
100
AcDbTrace
 10
-451.3173809319
 20
-433.6943783684
 30
0.0
 11
-448.3173809319
 21
-434.4943783684
 31
0.0
 12
-448.3173809319
 22
-432.8943783684
 32
0.0
 13
-448.3173809319
 23
-432.8943783684
 33
0.0
  0
SOLID
  5
12B
330
127
100
AcDbEntity
  8
0
  6
Continuous
 62
     7
420
 16777215
370
    18
100
AcDbTrace
 10
-58.3173809319
 20
-433.6943783684
 30
0.0
 11
-61.3173809319
 21
-432.8943783684
 31
0.0
 12
-61.3173809319
 22
-434.4943783684
 32
0.0
 13
-61.3173809319
 23
-434.4943783684
 33
0.0
  0
LINE
  5
12C
330
127
100
AcDbEntity
  8
0
  6
Continuous
 62
     7
420
 16777215
370
    18
100
AcDbLine
 10
-260.7852056517
 20
-434.470997568
 30
0.0
 11
-261.9787705026
 21
-434.470997568
 31
0.0
  0
LINE
  5
12D
330
127
100
AcDbEntity
  8
0
  6
Continuous
 62
     7
420
 16777215
370
    18
100
AcDbLine
 10
-261.9787705026
 20
-434.470997568
 30
0.0
 11
-261.9787705026
 21
-440.4251025094
 31
0.0
  0
LINE
  5
12E
330
127
100
AcDbEntity
  8
0
  6
Continuous
 62
     7
420
 16777215
370
    18
100
AcDbLine
 10
-261.9787705026
 20
-440.4251025094
 30
0.0
 11
-260.7852056517
 21
-440.4251025094
 31
0.0
  0
LINE
  5
12F
330
127
100
AcDbEntity
  8
0
  6
Continuous
 62
     7
420
 16777215
370
    18
100
AcDbLine
 10
-248.8495571434
 20
-434.470997568
 30
0.0
 11
-247.6559922925
 21
-434.470997568
 31
0.0
  0
LINE
  5
130
330
127
100
AcDbEntity
  8
0
  6
Continuous
 62
     7
420
 16777215
370
    18
100
AcDbLine
 10
-247.6559922925
 20
-434.470997568
 30
0.0
 11
-247.6559922925
 21
-440.4251025094
 31
0.0
  0
LINE
  5
131
330
127
100
AcDbEntity
  8
0
  6
Continuous
 62
     7
420
 16777215
370
    18
100
AcDbLine
 10
-247.6559922925
 20
-440.4251025094
 30
0.0
 11
-248.8495571434
 21
-440.4251025094
 31
0.0
  0
LINE
  5
132
330
127
100
AcDbEntity
  8
0
  6
Continuous
 62
     7
420
 16777215
370
    18
100
AcDbLine
 10
-451.3173809319
 20
-166.7243496563
 30
0.0
 11
-451.3173809319
 21
-435.6943783684
 31
0.0
  0
LINE
  5
133
330
127
100
AcDbEntity
  8
0
  6
Continuous
 62
     7
420
 16777215
370
    18
100
AcDbLine
 10
-58.3173809319
 20
-166.7243496563
 30
0.0
 11
-58.3173809319
 21
-435.6943783684
 31
0.0
  0
LINE
  5
134
330
127
100
AcDbEntity
  8
0
  6
Continuous
 62
     7
420
 16777215
370
    18
100
AcDbLine
 10
-451.3173809319
 20
-433.6943783684
 30
0.0
 11
-58.3173809319
 21
-433.6943783684
 31
0.0
  0
MTEXT
  5
135
330
127
100
AcDbEntity
  8
0
  6
Continuous
 62
     7
420
 16777215
370
    18
100
AcDbMText
 10
-259.248661705
 20
-428.9003659147
 30
0.0
 40
3.7041666667
 41
0.0
 71
     1
 72
     1
  1
393
  7
SLDTEXTSTYLE0
 73
     1
 44
1.0
  0
MTEXT
  5
136
330
127
100
AcDbEntity
  8
0
  6
Continuous
 62
     7
420
 16777215
370
    18
100
AcDbMText
 10
-260.7852056517
 20
-435.6501807566
 30
0.0
 40
3.7041666667
 41
0.0
 71
     1
 72
     1
  1
15,47
  7
SLDTEXTSTYLE0
 73
     1
 44
1.0
  0
ENDBLK
  5
129
330
127
100
AcDbEntity
  8
0
100
AcDbBlockEnd
  0
BLOCK
  5
13A
330
139
100
AcDbEntity
  8
0
100
AcDbBlockBegin
  2
_D_5
 70
     0
 10
0.0
 20
0.0
 30
0.0
  3
_D_5
  1

  0
SOLID
  5
13C
330
139
100
AcDbEntity
  8
0
  6
Continuous
 62
     7
420
 16777215
370
    18
100
AcDbTrace
 10
-250.1054327136
 20
-149.4717980354
 30
0.0
 11
-248.4817579519
 21
-152.1182447604
 31
0.0
 12
-247.3796168124
 22
-150.9583805836
 32
0.0
 13
-247.3796168124
 23
-150.9583805836
 33
0.0
  0
SOLID
  5
13D
330
139
100
AcDbEntity
  8
0
  6
Continuous
 62
     7
420
 16777215
370
    18
100
AcDbTrace
 10
-259.5293291502
 20
-140.5169012771
 30
0.0
 11
-261.153003912
 21
-137.8704545521
 31
0.0
 12
-262.2551450515
 22
-139.0303187289
 32
0.0
 13
-262.2551450515
 23
-139.0303187289
 33
0.0
  0
LINE
  5
13E
330
139
100
AcDbEntity
  8
0
  6
Continuous
 62
     7
420
 16777215
370
    18
100
AcDbLine
 10
-371.2855401009
 20
-41.7715180514
 30
0.0
 11
-372.4791049517
 21
-41.7715180514
 31
0.0
  0
LINE
  5
13F
330
139
100
AcDbEntity
  8
0
  6
Continuous
 62
     7
420
 16777215
370
    18
100
AcDbLine
 10
-372.4791049517
 20
-41.7715180514
 30
0.0
 11
-372.4791049517
 21
-47.7256229928
 31
0.0
  0
LINE
  5
140
330
139
100
AcDbEntity
  8
0
  6
Continuous
 62
     7
420
 16777215
370
    18
100
AcDbLine
 10
-372.4791049517
 20
-47.7256229928
 30
0.0
 11
-371.2855401009
 21
-47.7256229928
 31
0.0
  0
LINE
  5
141
330
139
100
AcDbEntity
  8
0
  6
Continuous
 62
     7
420
 16777215
370
    18
100
AcDbLine
 10
-361.7301621034
 20
-41.7715180514
 30
0.0
 11
-360.5365972526
 21
-41.7715180514
 31
0.0
  0
LINE
  5
142
330
139
100
AcDbEntity
  8
0
  6
Continuous
 62
     7
420
 16777215
370
    18
100
AcDbLine
 10
-360.5365972526
 20
-41.7715180514
 30
0.0
 11
-360.5365972526
 21
-47.7256229928
 31
0.0
  0
LINE
  5
143
330
139
100
AcDbEntity
  8
0
  6
Continuous
 62
     7
420
 16777215
370
    18
100
AcDbLine
 10
-360.5365972526
 20
-47.7256229928
 30
0.0
 11
-361.7301621034
 21
-47.7256229928
 31
0.0
  0
LINE
  5
144
330
139
100
AcDbEntity
  8
0
  6
Continuous
 62
     7
420
 16777215
370
    18
100
AcDbLine
 10
-250.1054327136
 20
-149.4717980354
 30
0.0
 11
-244.3061118296
 21
-154.9825037329
 31
0.0
  0
LINE
  5
145
330
139
100
AcDbEntity
  8
0
  6
Continuous
 62
     7
420
 16777215
370
    18
100
AcDbLine
 10
-259.5293291502
 20
-140.5169012771
 30
0.0
 11
-356.3430314704
 21
-48.5213328933
 31
0.0
  0
LINE
  5
146
330
139
100
AcDbEntity
  8
0
  6
Continuous
 62
     7
420
 16777215
370
    18
100
AcDbLine
 10
-250.1054327136
 20
-149.4717980354
 30
0.0
 11
-259.5293291502
 21
-140.5169012771
 31
0.0
  0
LINE
  5
147
330
139
100
AcDbEntity
  8
0
  6
Continuous
 62
     7
420
 16777215
370
    18
100
AcDbLine
 10
-356.3430314704
 20
-48.5213328933
 30
0.0
 11
-384.3434136852
 21
-48.5213328933
 31
0.0
  0
MTEXT
  5
148
330
139
100
AcDbEntity
  8
0
  6
Continuous
 62
     7
420
 16777215
370
    18
100
AcDbMText
 10
-384.3434136852
 20
-42.95070124
 30
0.0
 40
3.7041666667
 41
0.0
 71
     1
 72
     1
  1
%%c
  7
SLDTEXTSTYLE0
 73
     1
 44
1.0
  0
MTEXT
  5
149
330
139
100
AcDbEntity
  8
0
  6
Continuous
 62
     7
420
 16777215
370
    18
100
AcDbMText
 10
-378.6870139211
 20
-42.95070124
 30
0.0
 40
3.7041666667
 41
0.0
 71
     1
 72
     1
  1
13
  7
SLDTEXTSTYLE0
 73
     1
 44
1.0
  0
MTEXT
  5
14A
330
139
100
AcDbEntity
  8
0
  6
Continuous
 62
     7
420
 16777215
370
    18
100
AcDbMText
 10
-371.2855401009
 20
-42.95070124
 30
0.0
 40
3.7041666667
 41
0.0
 71
     1
 72
     1
  1
0,51
  7
SLDTEXTSTYLE0
 73
     1
 44
1.0
  0
ENDBLK
  5
13B
330
139
100
AcDbEntity
  8
0
100
AcDbBlockEnd
  0
BLOCK
  5
14D
330
14C
100
AcDbEntity
  8
0
100
AcDbBlockBegin
  2
_D_6
 70
     0
 10
0.0
 20
0.0
 30
0.0
  3
_D_6
  1

  0
SOLID
  5
14F
330
14C
100
AcDbEntity
  8
0
  6
Continuous
 62
     7
420
 16777215
370
    18
100
AcDbTrace
 10
-350.3173809319
 20
-258.6943783683
 30
0.0
 11
-347.3173809319
 21
-259.4943783683
 31
0.0
 12
-347.3173809319
 22
-257.8943783683
 32
0.0
 13
-347.3173809319
 23
-257.8943783683
 33
0.0
  0
SOLID
  5
150
330
14C
100
AcDbEntity
  8
0
  6
Continuous
 62
     7
420
 16777215
370
    18
100
AcDbTrace
 10
-159.3173809319
 20
-258.6943783683
 30
0.0
 11
-162.3173809319
 21
-257.8943783683
 31
0.0
 12
-162.3173809319
 22
-259.4943783683
 32
0.0
 13
-162.3173809319
 23
-259.4943783683
 33
0.0
  0
LINE
  5
151
330
14C
100
AcDbEntity
  8
0
  6
Continuous
 62
     7
420
 16777215
370
    18
100
AcDbLine
 10
-259.5573425188
 20
-259.470997568
 30
0.0
 11
-260.7509073696
 21
-259.470997568
 31
0.0
  0
LINE
  5
152
330
14C
100
AcDbEntity
  8
0
  6
Continuous
 62
     7
420
 16777215
370
    18
100
AcDbLine
 10
-260.7509073696
 20
-259.470997568
 30
0.0
 11
-260.7509073696
 21
-265.4251025093
 31
0.0
  0
LINE
  5
153
330
14C
100
AcDbEntity
  8
0
  6
Continuous
 62
     7
420
 16777215
370
    18
100
AcDbLine
 10
-260.7509073696
 20
-265.4251025093
 30
0.0
 11
-259.5573425188
 21
-265.4251025093
 31
0.0
  0
LINE
  5
154
330
14C
100
AcDbEntity
  8
0
  6
Continuous
 62
     7
420
 16777215
370
    18
100
AcDbLine
 10
-250.077419345
 20
-259.470997568
 30
0.0
 11
-248.8838544942
 21
-259.470997568
 31
0.0
  0
LINE
  5
155
330
14C
100
AcDbEntity
  8
0
  6
Continuous
 62
     7
420
 16777215
370
    18
100
AcDbLine
 10
-248.8838544942
 20
-259.470997568
 30
0.0
 11
-248.8838544942
 21
-265.4251025093
 31
0.0
  0
LINE
  5
156
330
14C
100
AcDbEntity
  8
0
  6
Continuous
 62
     7
420
 16777215
370
    18
100
AcDbLine
 10
-248.8838544942
 20
-265.4251025093
 30
0.0
 11
-250.077419345
 21
-265.4251025093
 31
0.0
  0
LINE
  5
157
330
14C
100
AcDbEntity
  8
0
  6
Continuous
 62
     7
420
 16777215
370
    18
100
AcDbLine
 10
-350.3173809319
 20
-154.9943496563
 30
0.0
 11
-350.3173809319
 21
-260.6943783683
 31
0.0
  0
LINE
  5
158
330
14C
100
AcDbEntity
  8
0
  6
Continuous
 62
     7
420
 16777215
370
    18
100
AcDbLine
 10
-159.3173809319
 20
-154.9943496563
 30
0.0
 11
-159.3173809319
 21
-260.6943783683
 31
0.0
  0
LINE
  5
159
330
14C
100
AcDbEntity
  8
0
  6
Continuous
 62
     7
420
 16777215
370
    18
100
AcDbLine
 10
-350.3173809319
 20
-258.6943783683
 30
0.0
 11
-159.3173809319
 21
-258.6943783683
 31
0.0
  0
MTEXT
  5
15A
330
14C
100
AcDbEntity
  8
0
  6
Continuous
 62
     7
420
 16777215
370
    18
100
AcDbMText
 10
-258.4598114609
 20
-253.9003659147
 30
0.0
 40
3.7041666667
 41
0.0
 71
     1
 72
     1
  1
191
  7
SLDTEXTSTYLE0
 73
     1
 44
1.0
  0
MTEXT
  5
15B
330
14C
100
AcDbEntity
  8
0
  6
Continuous
 62
     7
420
 16777215
370
    18
100
AcDbMText
 10
-259.5573425188
 20
-260.6501807566
 30
0.0
 40
3.7041666667
 41
0.0
 71
     1
 72
     1
  1
7,52
  7
SLDTEXTSTYLE0
 73
     1
 44
1.0
  0
ENDBLK
  5
14E
330
14C
100
AcDbEntity
  8
0
100
AcDbBlockEnd
  0
BLOCK
  5
15E
330
15D
100
AcDbEntity
  8
0
100
AcDbBlockBegin
  2
_D_7
 70
     0
 10
0.0
 20
0.0
 30
0.0
  3
_D_7
  1

  0
SOLID
  5
160
330
15D
100
AcDbEntity
  8
0
  6
Continuous
 62
     7
420
 16777215
370
    18
100
AcDbTrace
 10
-406.3173809319
 20
-346.2507552969
 30
0.0
 11
-403.3173809319
 21
-347.0507552969
 31
0.0
 12
-403.3173809319
 22
-345.4507552969
 32
0.0
 13
-403.3173809319
 23
-345.4507552969
 33
0.0
  0
SOLID
  5
161
330
15D
100
AcDbEntity
  8
0
  6
Continuous
 62
     7
420
 16777215
370
    18
100
AcDbTrace
 10
-103.3173809319
 20
-346.2507552969
 30
0.0
 11
-106.3173809319
 21
-345.4507552969
 31
0.0
 12
-106.3173809319
 22
-347.0507552969
 32
0.0
 13
-106.3173809319
 23
-347.0507552969
 33
0.0
  0
LINE
  5
162
330
15D
100
AcDbEntity
  8
0
  6
Continuous
 62
     7
420
 16777215
370
    18
100
AcDbLine
 10
-260.4696642503
 20
-347.0273744965
 30
0.0
 11
-261.6632291011
 21
-347.0273744965
 31
0.0
  0
LINE
  5
163
330
15D
100
AcDbEntity
  8
0
  6
Continuous
 62
     7
420
 16777215
370
    18
100
AcDbLine
 10
-261.6632291011
 20
-347.0273744965
 30
0.0
 11
-261.6632291011
 21
-352.9814794379
 31
0.0
  0
LINE
  5
164
330
15D
100
AcDbEntity
  8
0
  6
Continuous
 62
     7
420
 16777215
370
    18
100
AcDbLine
 10
-261.6632291011
 20
-352.9814794379
 30
0.0
 11
-260.4696642503
 21
-352.9814794379
 31
0.0
  0
LINE
  5
165
330
15D
100
AcDbEntity
  8
0
  6
Continuous
 62
     7
420
 16777215
370
    18
100
AcDbLine
 10
-249.1650966822
 20
-347.0273744965
 30
0.0
 11
-247.9715318314
 21
-347.0273744965
 31
0.0
  0
LINE
  5
166
330
15D
100
AcDbEntity
  8
0
  6
Continuous
 62
     7
420
 16777215
370
    18
100
AcDbLine
 10
-247.9715318314
 20
-347.0273744965
 30
0.0
 11
-247.9715318314
 21
-352.9814794379
 31
0.0
  0
LINE
  5
167
330
15D
100
AcDbEntity
  8
0
  6
Continuous
 62
     7
420
 16777215
370
    18
100
AcDbLine
 10
-247.9715318314
 20
-352.9814794379
 30
0.0
 11
-249.1650966822
 21
-352.9814794379
 31
0.0
  0
LINE
  5
168
330
15D
100
AcDbEntity
  8
0
  6
Continuous
 62
     7
420
 16777215
370
    18
100
AcDbLine
 10
-406.3173809319
 20
-166.7243496563
 30
0.0
 11
-406.3173809319
 21
-348.2507552969
 31
0.0
  0
LINE
  5
169
330
15D
100
AcDbEntity
  8
0
  6
Continuous
 62
     7
420
 16777215
370
    18
100
AcDbLine
 10
-103.3173809319
 20
-166.7243496563
 30
0.0
 11
-103.3173809319
 21
-348.2507552969
 31
0.0
  0
LINE
  5
16A
330
15D
100
AcDbEntity
  8
0
  6
Continuous
 62
     7
420
 16777215
370
    18
100
AcDbLine
 10
-406.3173809319
 20
-346.2507552969
 30
0.0
 11
-103.3173809319
 21
-346.2507552969
 31
0.0
  0
MTEXT
  5
16B
330
15D
100
AcDbEntity
  8
0
  6
Continuous
 62
     7
420
 16777215
370
    18
100
AcDbMText
 10
-259.4510190084
 20
-341.4567428432
 30
0.0
 40
3.7041666667
 41
0.0
 71
     1
 72
     1
  1
303
  7
SLDTEXTSTYLE0
 73
     1
 44
1.0
  0
MTEXT
  5
16C
330
15D
100
AcDbEntity
  8
0
  6
Continuous
 62
     7
420
 16777215
370
    18
100
AcDbMText
 10
-260.4696642503
 20
-348.2065576851
 30
0.0
 40
3.7041666667
 41
0.0
 71
     1
 72
     1
  1
11,93
  7
SLDTEXTSTYLE0
 73
     1
 44
1.0
  0
ENDBLK
  5
15F
330
15D
100
AcDbEntity
  8
0
100
AcDbBlockEnd
  0
BLOCK
  5
170
330
16F
100
AcDbEntity
  8
0
100
AcDbBlockBegin
  2
_D_8
 70
     0
 10
0.0
 20
0.0
 30
0.0
  3
_D_8
  1

  0
SOLID
  5
172
330
16F
100
AcDbEntity
  8
0
  6
Continuous
 62
     7
420
 16777215
370
    18
100
AcDbTrace
 10
-107.1937441239
 20
-120.3625797497
 30
0.0
 11
-108.7405938786
 21
-117.6705069728
 31
0.0
 12
-109.8756542151
 22
-118.798176265
 32
0.0
 13
-109.8756542151
 23
-118.798176265
 33
0.0
  0
LINE
  5
173
330
16F
100
AcDbEntity
  8
0
  6
Continuous
 62
     7
420
 16777215
370
    18
100
AcDbLine
 10
-204.8035488731
 20
-31.1148110115
 30
0.0
 11
-205.9971137239
 21
-31.1148110115
 31
0.0
  0
LINE
  5
174
330
16F
100
AcDbEntity
  8
0
  6
Continuous
 62
     7
420
 16777215
370
    18
100
AcDbLine
 10
-205.9971137239
 20
-31.1148110115
 30
0.0
 11
-205.9971137239
 21
-37.0689159529
 31
0.0
  0
LINE
  5
175
330
16F
100
AcDbEntity
  8
0
  6
Continuous
 62
     7
420
 16777215
370
    18
100
AcDbLine
 10
-205.9971137239
 20
-37.0689159529
 30
0.0
 11
-204.8035488731
 21
-37.0689159529
 31
0.0
  0
LINE
  5
176
330
16F
100
AcDbEntity
  8
0
  6
Continuous
 62
     7
420
 16777215
370
    18
100
AcDbLine
 10
-194.5416351116
 20
-31.1148110115
 30
0.0
 11
-193.3480702608
 21
-31.1148110115
 31
0.0
  0
LINE
  5
177
330
16F
100
AcDbEntity
  8
0
  6
Continuous
 62
     7
420
 16777215
370
    18
100
AcDbLine
 10
-193.3480702608
 20
-31.1148110115
 30
0.0
 11
-193.3480702608
 21
-37.0689159529
 31
0.0
  0
LINE
  5
178
330
16F
100
AcDbEntity
  8
0
  6
Continuous
 62
     7
420
 16777215
370
    18
100
AcDbLine
 10
-193.3480702608
 20
-37.0689159529
 30
0.0
 11
-194.5416351116
 21
-37.0689159529
 31
0.0
  0
LINE
  5
179
330
16F
100
AcDbEntity
  8
0
  6
Continuous
 62
     7
420
 16777215
370
    18
100
AcDbLine
 10
-107.1937441239
 20
-120.3625797497
 30
0.0
 11
-189.1545054099
 21
-37.8646258534
 31
0.0
  0
LINE
  5
17A
330
16F
100
AcDbEntity
  8
0
  6
Continuous
 62
     7
420
 16777215
370
    18
100
AcDbLine
 10
-103.3173809319
 20
-124.2643496563
 30
0.0
 11
-107.1937441239
 21
-120.3625797497
 31
0.0
  0
LINE
  5
17B
330
16F
100
AcDbEntity
  8
0
  6
Continuous
 62
     7
420
 16777215
370
    18
100
AcDbLine
 10
-189.1545054099
 20
-37.8646258534
 30
0.0
 11
-207.1906785748
 21
-37.8646258534
 31
0.0
  0
MTEXT
  5
17C
330
16F
100
AcDbEntity
  8
0
  6
Continuous
 62
     7
420
 16777215
370
    18
100
AcDbMText
 10
-202.9240272275
 20
-25.5441793582
 30
0.0
 40
3.7041666667
 41
0.0
 71
     1
 72
     1
  1
R6
  7
SLDTEXTSTYLE0
 73
     1
 44
1.0
  0
MTEXT
  5
17D
330
16F
100
AcDbEntity
  8
0
  6
Continuous
 62
     7
420
 16777215
370
    18
100
AcDbMText
 10
-204.8035488731
 20
-32.2939942001
 30
0.0
 40
3.7041666667
 41
0.0
 71
     1
 72
     1
  1
0,22
  7
SLDTEXTSTYLE0
 73
     1
 44
1.0
  0
ENDBLK
  5
171
330
16F
100
AcDbEntity
  8
0
100
AcDbBlockEnd
  0
BLOCK
  5
17F
330
17E
100
AcDbEntity
  8
0
100
AcDbBlockBegin
  2
SW_CENTERMARKSYMBOL_0
 70
     0
 10
0.0
 20
0.0
 30
0.0
  3
SW_CENTERMARKSYMBOL_0
  1

  0
LINE
  5
181
330
17E
100
AcDbEntity
  8
0
  6
Continuous
 62
     0
370
    18
100
AcDbLine
 10
0.0
 20
0.0
 30
0.0
 11
0.0
 21
2.5
 31
0.0
  0
LINE
  5
182
330
17E
100
AcDbEntity
  8
0
  6
Continuous
 62
     0
370
    18
100
AcDbLine
 10
0.0
 20
0.0
 30
0.0
 11
-2.5
 21
0.0
 31
0.0
  0
LINE
  5
183
330
17E
100
AcDbEntity
  8
0
  6
Continuous
 62
     0
370
    18
100
AcDbLine
 10
0.0
 20
0.0
 30
0.0
 11
0.0
 21
-2.5
 31
0.0
  0
LINE
  5
184
330
17E
100
AcDbEntity
  8
0
  6
Continuous
 62
     0
370
    18
100
AcDbLine
 10
0.0
 20
0.0
 30
0.0
 11
2.5
 21
0.0
 31
0.0
  0
LINE
  5
185
330
17E
100
AcDbEntity
  8
0
  6
Continuous
 62
     0
370
    18
100
AcDbLine
 10
0.0
 20
5.0
 30
0.0
 11
0.0
 21
9.0
 31
0.0
  0
LINE
  5
186
330
17E
100
AcDbEntity
  8
0
  6
Continuous
 62
     0
370
    18
100
AcDbLine
 10
-5.0
 20
0.0
 30
0.0
 11
-9.0
 21
0.0
 31
0.0
  0
LINE
  5
187
330
17E
100
AcDbEntity
  8
0
  6
Continuous
 62
     0
370
    18
100
AcDbLine
 10
0.0
 20
-5.0
 30
0.0
 11
0.0
 21
-9.0
 31
0.0
  0
LINE
  5
188
330
17E
100
AcDbEntity
  8
0
  6
Continuous
 62
     0
370
    18
100
AcDbLine
 10
5.0
 20
0.0
 30
0.0
 11
9.0
 21
0.0
 31
0.0
  0
ENDBLK
  5
180
330
17E
100
AcDbEntity
  8
0
100
AcDbBlockEnd
  0
BLOCK
  5
18B
330
18A
100
AcDbEntity
  8
0
100
AcDbBlockBegin
  2
SW_CENTERMARKSYMBOL_1
 70
     0
 10
0.0
 20
0.0
 30
0.0
  3
SW_CENTERMARKSYMBOL_1
  1

  0
LINE
  5
18D
330
18A
100
AcDbEntity
  8
0
  6
Continuous
 62
     0
370
    18
100
AcDbLine
 10
0.0
 20
0.0
 30
0.0
 11
0.0
 21
2.5
 31
0.0
  0
LINE
  5
18E
330
18A
100
AcDbEntity
  8
0
  6
Continuous
 62
     0
370
    18
100
AcDbLine
 10
0.0
 20
0.0
 30
0.0
 11
-2.5
 21
0.0
 31
0.0
  0
LINE
  5
18F
330
18A
100
AcDbEntity
  8
0
  6
Continuous
 62
     0
370
    18
100
AcDbLine
 10
0.0
 20
0.0
 30
0.0
 11
0.0
 21
-2.5
 31
0.0
  0
LINE
  5
190
330
18A
100
AcDbEntity
  8
0
  6
Continuous
 62
     0
370
    18
100
AcDbLine
 10
0.0
 20
0.0
 30
0.0
 11
2.5
 21
0.0
 31
0.0
  0
LINE
  5
191
330
18A
100
AcDbEntity
  8
0
  6
Continuous
 62
     0
370
    18
100
AcDbLine
 10
0.0
 20
5.0
 30
0.0
 11
0.0
 21
9.0
 31
0.0
  0
LINE
  5
192
330
18A
100
AcDbEntity
  8
0
  6
Continuous
 62
     0
370
    18
100
AcDbLine
 10
-5.0
 20
0.0
 30
0.0
 11
-9.0
 21
0.0
 31
0.0
  0
LINE
  5
193
330
18A
100
AcDbEntity
  8
0
  6
Continuous
 62
     0
370
    18
100
AcDbLine
 10
0.0
 20
-5.0
 30
0.0
 11
0.0
 21
-9.0
 31
0.0
  0
LINE
  5
194
330
18A
100
AcDbEntity
  8
0
  6
Continuous
 62
     0
370
    18
100
AcDbLine
 10
5.0
 20
0.0
 30
0.0
 11
9.0
 21
0.0
 31
0.0
  0
ENDBLK
  5
18C
330
18A
100
AcDbEntity
  8
0
100
AcDbBlockEnd
  0
BLOCK
  5
197
330
196
100
AcDbEntity
  8
0
100
AcDbBlockBegin
  2
SW_CENTERMARKSYMBOL_2
 70
     0
 10
0.0
 20
0.0
 30
0.0
  3
SW_CENTERMARKSYMBOL_2
  1

  0
LINE
  5
199
330
196
100
AcDbEntity
  8
0
  6
Continuous
 62
     0
370
    18
100
AcDbLine
 10
0.0
 20
0.0
 30
0.0
 11
0.0
 21
2.5
 31
0.0
  0
LINE
  5
19A
330
196
100
AcDbEntity
  8
0
  6
Continuous
 62
     0
370
    18
100
AcDbLine
 10
0.0
 20
0.0
 30
0.0
 11
-2.5
 21
0.0
 31
0.0
  0
LINE
  5
19B
330
196
100
AcDbEntity
  8
0
  6
Continuous
 62
     0
370
    18
100
AcDbLine
 10
0.0
 20
0.0
 30
0.0
 11
0.0
 21
-2.5
 31
0.0
  0
LINE
  5
19C
330
196
100
AcDbEntity
  8
0
  6
Continuous
 62
     0
370
    18
100
AcDbLine
 10
0.0
 20
0.0
 30
0.0
 11
2.5
 21
0.0
 31
0.0
  0
LINE
  5
19D
330
196
100
AcDbEntity
  8
0
  6
Continuous
 62
     0
370
    18
100
AcDbLine
 10
0.0
 20
5.0
 30
0.0
 11
0.0
 21
9.0
 31
0.0
  0
LINE
  5
19E
330
196
100
AcDbEntity
  8
0
  6
Continuous
 62
     0
370
    18
100
AcDbLine
 10
-5.0
 20
0.0
 30
0.0
 11
-9.0
 21
0.0
 31
0.0
  0
LINE
  5
19F
330
196
100
AcDbEntity
  8
0
  6
Continuous
 62
     0
370
    18
100
AcDbLine
 10
0.0
 20
-5.0
 30
0.0
 11
0.0
 21
-9.0
 31
0.0
  0
LINE
  5
1A0
330
196
100
AcDbEntity
  8
0
  6
Continuous
 62
     0
370
    18
100
AcDbLine
 10
5.0
 20
0.0
 30
0.0
 11
9.0
 21
0.0
 31
0.0
  0
ENDBLK
  5
198
330
196
100
AcDbEntity
  8
0
100
AcDbBlockEnd
  0
BLOCK
  5
1FC
330
1FB
100
AcDbEntity
  8
0
100
AcDbBlockBegin
  2
_D_9
 70
     0
 10
0.0
 20
0.0
 30
0.0
  3
_D_9
  1

  0
SOLID
  5
1FE
330
1FB
100
AcDbEntity
  8
0
  6
Continuous
 62
     7
420
 16777215
370
    18
100
AcDbTrace
 10
115.2223428483
 20
456.6420920617
 30
0.0
 11
118.2223428483
 21
455.8420920617
 31
0.0
 12
118.2223428483
 22
457.4420920617
 32
0.0
 13
118.2223428483
 23
457.4420920617
 33
0.0
  0
SOLID
  5
1FF
330
1FB
100
AcDbEntity
  8
0
  6
Continuous
 62
     7
420
 16777215
370
    18
100
AcDbTrace
 10
197.6752183556
 20
456.6420920617
 30
0.0
 11
194.6752183556
 21
457.4420920617
 31
0.0
 12
194.6752183556
 22
455.8420920617
 32
0.0
 13
194.6752183556
 23
455.8420920617
 33
0.0
  0
LINE
  5
200
330
1FB
100
AcDbEntity
  8
0
  6
Continuous
 62
     7
420
 16777215
370
    18
100
AcDbLine
 10
46.4628384242
 20
455.865472862
 30
0.0
 11
45.2692735733
 21
455.865472862
 31
0.0
  0
LINE
  5
201
330
1FB
100
AcDbEntity
  8
0
  6
Continuous
 62
     7
420
 16777215
370
    18
100
AcDbLine
 10
45.2692735733
 20
455.865472862
 30
0.0
 11
45.2692735733
 21
449.9113679207
 31
0.0
  0
LINE
  5
202
330
1FB
100
AcDbEntity
  8
0
  6
Continuous
 62
     7
420
 16777215
370
    18
100
AcDbLine
 10
45.2692735733
 20
449.9113679207
 30
0.0
 11
46.4628384242
 21
449.9113679207
 31
0.0
  0
LINE
  5
203
330
1FB
100
AcDbEntity
  8
0
  6
Continuous
 62
     7
420
 16777215
370
    18
100
AcDbLine
 10
56.1828463131
 20
455.865472862
 30
0.0
 11
57.376411164
 21
455.865472862
 31
0.0
  0
LINE
  5
204
330
1FB
100
AcDbEntity
  8
0
  6
Continuous
 62
     7
420
 16777215
370
    18
100
AcDbLine
 10
57.376411164
 20
455.865472862
 30
0.0
 11
57.376411164
 21
449.9113679207
 31
0.0
  0
LINE
  5
205
330
1FB
100
AcDbEntity
  8
0
  6
Continuous
 62
     7
420
 16777215
370
    18
100
AcDbLine
 10
57.376411164
 20
449.9113679207
 30
0.0
 11
56.1828463131
 21
449.9113679207
 31
0.0
  0
LINE
  5
206
330
1FB
100
AcDbEntity
  8
0
  6
Continuous
 62
     7
420
 16777215
370
    18
100
AcDbLine
 10
115.2223428483
 20
413.8781330201
 30
0.0
 11
115.2223428483
 21
458.6420920617
 31
0.0
  0
LINE
  5
207
330
1FB
100
AcDbEntity
  8
0
  6
Continuous
 62
     7
420
 16777215
370
    18
100
AcDbLine
 10
197.6752183556
 20
413.8781330201
 30
0.0
 11
197.6752183556
 21
458.6420920617
 31
0.0
  0
LINE
  5
208
330
1FB
100
AcDbEntity
  8
0
  6
Continuous
 62
     7
420
 16777215
370
    18
100
AcDbLine
 10
115.2223428483
 20
456.6420920617
 30
0.0
 11
44.0757087225
 21
456.6420920617
 31
0.0
  0
LINE
  5
209
330
1FB
100
AcDbEntity
  8
0
  6
Continuous
 62
     7
420
 16777215
370
    18
100
AcDbLine
 10
115.2223428483
 20
456.6420920617
 30
0.0
 11
197.6752183556
 21
456.6420920617
 31
0.0
  0
MTEXT
  5
20A
330
1FB
100
AcDbEntity
  8
0
  6
Continuous
 62
     7
420
 16777215
370
    18
100
AcDbMText
 10
48.3080622533
 20
461.4361045153
 30
0.0
 40
3.7041666667
 41
0.0
 71
     1
 72
     1
  1
82
  7
SLDTEXTSTYLE0
 73
     1
 44
1.0
  0
MTEXT
  5
20B
330
1FB
100
AcDbEntity
  8
0
  6
Continuous
 62
     7
420
 16777215
370
    18
100
AcDbMText
 10
46.4628384242
 20
454.6862896734
 30
0.0
 40
3.7041666667
 41
0.0
 71
     1
 72
     1
  1
3,25
  7
SLDTEXTSTYLE0
 73
     1
 44
1.0
  0
ENDBLK
  5
1FD
330
1FB
100
AcDbEntity
  8
0
100
AcDbBlockEnd
  0
BLOCK
  5
20E
330
20D
100
AcDbEntity
  8
0
100
AcDbBlockBegin
  2
_D_10
 70
     0
 10
0.0
 20
0.0
 30
0.0
  3
_D_10
  1

  0
SOLID
  5
210
330
20D
100
AcDbEntity
  8
0
  6
Continuous
 62
     7
420
 16777215
370
    18
100
AcDbTrace
 10
121.4487806019
 20
323.855560917
 30
0.0
 11
124.4487806019
 21
323.055560917
 31
0.0
 12
124.4487806019
 22
324.655560917
 32
0.0
 13
124.4487806019
 23
324.655560917
 33
0.0
  0
SOLID
  5
211
330
20D
100
AcDbEntity
  8
0
  6
Continuous
 62
     7
420
 16777215
370
    18
100
AcDbTrace
 10
191.4487806019
 20
323.855560917
 30
0.0
 11
188.4487806019
 21
324.655560917
 31
0.0
 12
188.4487806019
 22
323.055560917
 32
0.0
 13
188.4487806019
 23
323.055560917
 33
0.0
  0
LINE
  5
212
330
20D
100
AcDbEntity
  8
0
  6
Continuous
 62
     7
420
 16777215
370
    18
100
AcDbLine
 10
51.6093556267
 20
323.0789417173
 30
0.0
 11
50.4157907759
 21
323.0789417173
 31
0.0
  0
LINE
  5
213
330
20D
100
AcDbEntity
  8
0
  6
Continuous
 62
     7
420
 16777215
370
    18
100
AcDbLine
 10
50.4157907759
 20
323.0789417173
 30
0.0
 11
50.4157907759
 21
317.1248367759
 31
0.0
  0
LINE
  5
214
330
20D
100
AcDbEntity
  8
0
  6
Continuous
 62
     7
420
 16777215
370
    18
100
AcDbLine
 10
50.4157907759
 20
317.1248367759
 30
0.0
 11
51.6093556267
 21
317.1248367759
 31
0.0
  0
LINE
  5
215
330
20D
100
AcDbEntity
  8
0
  6
Continuous
 62
     7
420
 16777215
370
    18
100
AcDbLine
 10
61.2882055772
 20
323.0789417173
 30
0.0
 11
62.481770428
 21
323.0789417173
 31
0.0
  0
LINE
  5
216
330
20D
100
AcDbEntity
  8
0
  6
Continuous
 62
     7
420
 16777215
370
    18
100
AcDbLine
 10
62.481770428
 20
323.0789417173
 30
0.0
 11
62.481770428
 21
317.1248367759
 31
0.0
  0
LINE
  5
217
330
20D
100
AcDbEntity
  8
0
  6
Continuous
 62
     7
420
 16777215
370
    18
100
AcDbLine
 10
62.481770428
 20
317.1248367759
 30
0.0
 11
61.2882055772
 21
317.1248367759
 31
0.0
  0
LINE
  5
218
330
20D
100
AcDbEntity
  8
0
  6
Continuous
 62
     7
420
 16777215
370
    18
100
AcDbLine
 10
121.4487806019
 20
246.2976811287
 30
0.0
 11
121.4487806019
 21
325.855560917
 31
0.0
  0
LINE
  5
219
330
20D
100
AcDbEntity
  8
0
  6
Continuous
 62
     7
420
 16777215
370
    18
100
AcDbLine
 10
191.4487806019
 20
246.2976811287
 30
0.0
 11
191.4487806019
 21
325.855560917
 31
0.0
  0
LINE
  5
21A
330
20D
100
AcDbEntity
  8
0
  6
Continuous
 62
     7
420
 16777215
370
    18
100
AcDbLine
 10
121.4487806019
 20
323.855560917
 30
0.0
 11
49.222225925
 21
323.855560917
 31
0.0
  0
LINE
  5
21B
330
20D
100
AcDbEntity
  8
0
  6
Continuous
 62
     7
420
 16777215
370
    18
100
AcDbLine
 10
121.4487806019
 20
323.855560917
 30
0.0
 11
191.4487806019
 21
323.855560917
 31
0.0
  0
MTEXT
  5
21C
330
20D
100
AcDbEntity
  8
0
  6
Continuous
 62
     7
420
 16777215
370
    18
100
AcDbMText
 10
53.3859835901
 20
328.6495733706
 30
0.0
 40
3.7041666667
 41
0.0
 71
     1
 72
     1
  1
70
  7
SLDTEXTSTYLE0
 73
     1
 44
1.0
  0
MTEXT
  5
21D
330
20D
100
AcDbEntity
  8
0
  6
Continuous
 62
     7
420
 16777215
370
    18
100
AcDbMText
 10
51.6093556267
 20
321.8997585287
 30
0.0
 40
3.7041666667
 41
0.0
 71
     1
 72
     1
  1
2,76
  7
SLDTEXTSTYLE0
 73
     1
 44
1.0
  0
ENDBLK
  5
20F
330
20D
100
AcDbEntity
  8
0
100
AcDbBlockEnd
  0
BLOCK
  5
220
330
21F
100
AcDbEntity
  8
0
100
AcDbBlockBegin
  2
_D_11
 70
     0
 10
0.0
 20
0.0
 30
0.0
  3
_D_11
  1

  0
SOLID
  5
222
330
21F
100
AcDbEntity
  8
0
  6
Continuous
 62
     7
420
 16777215
370
    18
100
AcDbTrace
 10
108.1288364494
 20
21.0897826575
 30
0.0
 11
108.9288364494
 21
24.0897826575
 31
0.0
 12
107.3288364494
 22
24.0897826575
 32
0.0
 13
107.3288364494
 23
24.0897826575
 33
0.0
  0
SOLID
  5
223
330
21F
100
AcDbEntity
  8
0
  6
Continuous
 62
     7
420
 16777215
370
    18
100
AcDbTrace
 10
108.1288364494
 20
56.0897826575
 30
0.0
 11
107.3288364494
 21
53.0897826575
 31
0.0
 12
108.9288364494
 22
53.0897826575
 32
0.0
 13
108.9288364494
 23
53.0897826575
 33
0.0
  0
LINE
  5
224
330
21F
100
AcDbEntity
  8
0
  6
Continuous
 62
     7
420
 16777215
370
    18
100
AcDbLine
 10
108.9054556491
 20
106.5095386951
 30
0.0
 11
108.9054556491
 21
105.3159738443
 31
0.0
  0
LINE
  5
225
330
21F
100
AcDbEntity
  8
0
  6
Continuous
 62
     7
420
 16777215
370
    18
100
AcDbLine
 10
108.9054556491
 20
105.3159738443
 30
0.0
 11
114.8595605904
 21
105.3159738443
 31
0.0
  0
LINE
  5
226
330
21F
100
AcDbEntity
  8
0
  6
Continuous
 62
     7
420
 16777215
370
    18
100
AcDbLine
 10
114.8595605904
 20
105.3159738443
 30
0.0
 11
114.8595605904
 21
106.5095386951
 31
0.0
  0
LINE
  5
227
330
21F
100
AcDbEntity
  8
0
  6
Continuous
 62
     7
420
 16777215
370
    18
100
AcDbLine
 10
108.9054556491
 20
115.8316911682
 30
0.0
 11
108.9054556491
 21
117.025256019
 31
0.0
  0
LINE
  5
228
330
21F
100
AcDbEntity
  8
0
  6
Continuous
 62
     7
420
 16777215
370
    18
100
AcDbLine
 10
108.9054556491
 20
117.025256019
 30
0.0
 11
114.8595605904
 21
117.025256019
 31
0.0
  0
LINE
  5
229
330
21F
100
AcDbEntity
  8
0
  6
Continuous
 62
     7
420
 16777215
370
    18
100
AcDbLine
 10
114.8595605904
 20
117.025256019
 30
0.0
 11
114.8595605904
 21
115.8316911682
 31
0.0
  0
LINE
  5
22A
330
21F
100
AcDbEntity
  8
0
  6
Continuous
 62
     7
420
 16777215
370
    18
100
AcDbLine
 10
130.4487806019
 20
21.0897826575
 30
0.0
 11
106.1288364494
 21
21.0897826575
 31
0.0
  0
LINE
  5
22B
330
21F
100
AcDbEntity
  8
0
  6
Continuous
 62
     7
420
 16777215
370
    18
100
AcDbLine
 10
147.6987806019
 20
56.0897826575
 30
0.0
 11
106.1288364494
 21
56.0897826575
 31
0.0
  0
LINE
  5
22C
330
21F
100
AcDbEntity
  8
0
  6
Continuous
 62
     7
420
 16777215
370
    18
100
AcDbLine
 10
108.1288364494
 20
21.0897826575
 30
0.0
 11
108.1288364494
 21
56.0897826575
 31
0.0
  0
LINE
  5
22D
330
21F
100
AcDbEntity
  8
0
  6
Continuous
 62
     7
420
 16777215
370
    18
100
AcDbLine
 10
108.1288364494
 20
56.0897826575
 30
0.0
 11
108.1288364494
 21
118.2188208698
 31
0.0
  0
MTEXT
  5
22E
330
21F
100
AcDbEntity
  8
0
  6
Continuous
 62
     7
420
 16777215
370
    18
100
AcDbMText
 10
103.3348239958
 20
108.2895964867
 30
0.0
 40
3.7041666667
 41
0.0
 71
     1
 72
     1
  1
35
  7
SLDTEXTSTYLE0
 11
6.123233995736766E-17
 21
1.0
 31
0.0
 73
     1
 44
1.0
  0
MTEXT
  5
22F
330
21F
100
AcDbEntity
  8
0
  6
Continuous
 62
     7
420
 16777215
370
    18
100
AcDbMText
 10
110.0846388377
 20
106.5095386951
 30
0.0
 40
3.7041666667
 41
0.0
 71
     1
 72
     1
  1
1,38
  7
SLDTEXTSTYLE0
 11
6.123233995736766E-17
 21
1.0
 31
0.0
 73
     1
 44
1.0
  0
ENDBLK
  5
221
330
21F
100
AcDbEntity
  8
0
100
AcDbBlockEnd
  0
BLOCK
  5
232
330
231
100
AcDbEntity
  8
0
100
AcDbBlockBegin
  2
_D_12
 70
     0
 10
0.0
 20
0.0
 30
0.0
  3
_D_12
  1

  0
SOLID
  5
234
330
231
100
AcDbEntity
  8
0
  6
Continuous
 62
     7
420
 16777215
370
    18
100
AcDbTrace
 10
270.148809314
 20
21.0897826575
 30
0.0
 11
270.948809314
 21
24.0897826575
 31
0.0
 12
269.348809314
 22
24.0897826575
 32
0.0
 13
269.348809314
 23
24.0897826575
 33
0.0
  0
SOLID
  5
235
330
231
100
AcDbEntity
  8
0
  6
Continuous
 62
     7
420
 16777215
370
    18
100
AcDbTrace
 10
270.148809314
 20
84.0897826575
 30
0.0
 11
269.348809314
 21
81.0897826575
 31
0.0
 12
270.948809314
 22
81.0897826575
 32
0.0
 13
270.948809314
 23
81.0897826575
 33
0.0
  0
LINE
  5
236
330
231
100
AcDbEntity
  8
0
  6
Continuous
 62
     7
420
 16777215
370
    18
100
AcDbLine
 10
270.9254285137
 20
-89.0754720397
 30
0.0
 11
270.9254285137
 21
-90.2690368905
 31
0.0
  0
LINE
  5
237
330
231
100
AcDbEntity
  8
0
  6
Continuous
 62
     7
420
 16777215
370
    18
100
AcDbLine
 10
270.9254285137
 20
-90.2690368905
 30
0.0
 11
276.879533455
 21
-90.2690368905
 31
0.0
  0
LINE
  5
238
330
231
100
AcDbEntity
  8
0
  6
Continuous
 62
     7
420
 16777215
370
    18
100
AcDbLine
 10
276.879533455
 20
-90.2690368905
 30
0.0
 11
276.879533455
 21
-89.0754720397
 31
0.0
  0
LINE
  5
239
330
231
100
AcDbEntity
  8
0
  6
Continuous
 62
     7
420
 16777215
370
    18
100
AcDbLine
 10
270.9254285137
 20
-78.7449626453
 30
0.0
 11
270.9254285137
 21
-77.5513977945
 31
0.0
  0
LINE
  5
23A
330
231
100
AcDbEntity
  8
0
  6
Continuous
 62
     7
420
 16777215
370
    18
100
AcDbLine
 10
270.9254285137
 20
-77.5513977945
 30
0.0
 11
276.879533455
 21
-77.5513977945
 31
0.0
  0
LINE
  5
23B
330
231
100
AcDbEntity
  8
0
  6
Continuous
 62
     7
420
 16777215
370
    18
100
AcDbLine
 10
276.879533455
 20
-77.5513977945
 30
0.0
 11
276.879533455
 21
-78.7449626453
 31
0.0
  0
LINE
  5
23C
330
231
100
AcDbEntity
  8
0
  6
Continuous
 62
     7
420
 16777215
370
    18
100
AcDbLine
 10
182.4487806019
 20
21.0897826575
 30
0.0
 11
272.148809314
 21
21.0897826575
 31
0.0
  0
LINE
  5
23D
330
231
100
AcDbEntity
  8
0
  6
Continuous
 62
     7
420
 16777215
370
    18
100
AcDbLine
 10
157.4487806019
 20
84.0897826575
 30
0.0
 11
272.148809314
 21
84.0897826575
 31
0.0
  0
LINE
  5
23E
330
231
100
AcDbEntity
  8
0
  6
Continuous
 62
     7
420
 16777215
370
    18
100
AcDbLine
 10
270.148809314
 20
21.0897826575
 30
0.0
 11
270.148809314
 21
-91.4626017414
 31
0.0
  0
LINE
  5
23F
330
231
100
AcDbEntity
  8
0
  6
Continuous
 62
     7
420
 16777215
370
    18
100
AcDbLine
 10
270.148809314
 20
21.0897826575
 30
0.0
 11
270.148809314
 21
84.0897826575
 31
0.0
  0
MTEXT
  5
240
330
231
100
AcDbEntity
  8
0
  6
Continuous
 62
     7
420
 16777215
370
    18
100
AcDbMText
 10
265.3547968604
 20
-86.8906996414
 30
0.0
 40
3.7041666667
 41
0.0
 71
     1
 72
     1
  1
63
  7
SLDTEXTSTYLE0
 11
6.123233995736766E-17
 21
1.0
 31
0.0
 73
     1
 44
1.0
  0
MTEXT
  5
241
330
231
100
AcDbEntity
  8
0
  6
Continuous
 62
     7
420
 16777215
370
    18
100
AcDbMText
 10
272.1046117023
 20
-89.0754720397
 30
0.0
 40
3.7041666667
 41
0.0
 71
     1
 72
     1
  1
2,48
  7
SLDTEXTSTYLE0
 11
6.123233995736766E-17
 21
1.0
 31
0.0
 73
     1
 44
1.0
  0
ENDBLK
  5
233
330
231
100
AcDbEntity
  8
0
100
AcDbBlockEnd
  0
BLOCK
  5
244
330
243
100
AcDbEntity
  8
0
100
AcDbBlockBegin
  2
_D_13
 70
     0
 10
0.0
 20
0.0
 30
0.0
  3
_D_13
  1

  0
SOLID
  5
246
330
243
100
AcDbEntity
  8
0
  6
Continuous
 62
     7
420
 16777215
370
    18
100
AcDbTrace
 10
320.148809314
 20
21.0897826575
 30
0.0
 11
320.948809314
 21
24.0897826575
 31
0.0
 12
319.348809314
 22
24.0897826575
 32
0.0
 13
319.348809314
 23
24.0897826575
 33
0.0
  0
SOLID
  5
247
330
243
100
AcDbEntity
  8
0
  6
Continuous
 62
     7
420
 16777215
370
    18
100
AcDbTrace
 10
320.148809314
 20
134.0897826575
 30
0.0
 11
319.348809314
 21
131.0897826575
 31
0.0
 12
320.948809314
 22
131.0897826575
 32
0.0
 13
320.948809314
 23
131.0897826575
 33
0.0
  0
LINE
  5
248
330
243
100
AcDbEntity
  8
0
  6
Continuous
 62
     7
420
 16777215
370
    18
100
AcDbLine
 10
320.9254285137
 20
72.4176683039
 30
0.0
 11
320.9254285137
 21
71.224103453
 31
0.0
  0
LINE
  5
249
330
243
100
AcDbEntity
  8
0
  6
Continuous
 62
     7
420
 16777215
370
    18
100
AcDbLine
 10
320.9254285137
 20
71.224103453
 30
0.0
 11
326.879533455
 21
71.224103453
 31
0.0
  0
LINE
  5
24A
330
243
100
AcDbEntity
  8
0
  6
Continuous
 62
     7
420
 16777215
370
    18
100
AcDbLine
 10
326.879533455
 20
71.224103453
 30
0.0
 11
326.879533455
 21
72.4176683039
 31
0.0
  0
LINE
  5
24B
330
243
100
AcDbEntity
  8
0
  6
Continuous
 62
     7
420
 16777215
370
    18
100
AcDbLine
 10
320.9254285137
 20
82.7618970111
 30
0.0
 11
320.9254285137
 21
83.955461862
 31
0.0
  0
LINE
  5
24C
330
243
100
AcDbEntity
  8
0
  6
Continuous
 62
     7
420
 16777215
370
    18
100
AcDbLine
 10
320.9254285137
 20
83.955461862
 30
0.0
 11
326.879533455
 21
83.955461862
 31
0.0
  0
LINE
  5
24D
330
243
100
AcDbEntity
  8
0
  6
Continuous
 62
     7
420
 16777215
370
    18
100
AcDbLine
 10
326.879533455
 20
83.955461862
 30
0.0
 11
326.879533455
 21
82.7618970111
 31
0.0
  0
LINE
  5
24E
330
243
100
AcDbEntity
  8
0
  6
Continuous
 62
     7
420
 16777215
370
    18
100
AcDbLine
 10
182.4487806019
 20
21.0897826575
 30
0.0
 11
322.148809314
 21
21.0897826575
 31
0.0
  0
LINE
  5
24F
330
243
100
AcDbEntity
  8
0
  6
Continuous
 62
     7
420
 16777215
370
    18
100
AcDbLine
 10
157.448780602
 20
134.0897826575
 30
0.0
 11
322.148809314
 21
134.0897826575
 31
0.0
  0
LINE
  5
250
330
243
100
AcDbEntity
  8
0
  6
Continuous
 62
     7
420
 16777215
370
    18
100
AcDbLine
 10
320.148809314
 20
21.0897826575
 30
0.0
 11
320.148809314
 21
134.0897826575
 31
0.0
  0
MTEXT
  5
251
330
243
100
AcDbEntity
  8
0
  6
Continuous
 62
     7
420
 16777215
370
    18
100
AcDbMText
 10
315.3547968604
 20
74.0262370132
 30
0.0
 40
3.7041666667
 41
0.0
 71
     1
 72
     1
  1
113
  7
SLDTEXTSTYLE0
 11
6.123233995736766E-17
 21
1.0
 31
0.0
 73
     1
 44
1.0
  0
MTEXT
  5
252
330
243
100
AcDbEntity
  8
0
  6
Continuous
 62
     7
420
 16777215
370
    18
100
AcDbMText
 10
322.1046117023
 20
72.4176683039
 30
0.0
 40
3.7041666667
 41
0.0
 71
     1
 72
     1
  1
4,45
  7
SLDTEXTSTYLE0
 11
6.123233995736766E-17
 21
1.0
 31
0.0
 73
     1
 44
1.0
  0
ENDBLK
  5
245
330
243
100
AcDbEntity
  8
0
100
AcDbBlockEnd
  0
BLOCK
  5
255
330
254
100
AcDbEntity
  8
0
100
AcDbBlockBegin
  2
_D_14
 70
     0
 10
0.0
 20
0.0
 30
0.0
  3
_D_14
  1

  0
SOLID
  5
257
330
254
100
AcDbEntity
  8
0
  6
Continuous
 62
     7
420
 16777215
370
    18
100
AcDbTrace
 10
39.3169105147
 20
21.0897826575
 30
0.0
 11
40.1169105147
 21
24.0897826575
 31
0.0
 12
38.5169105147
 22
24.0897826575
 32
0.0
 13
38.5169105147
 23
24.0897826575
 33
0.0
  0
SOLID
  5
258
330
254
100
AcDbEntity
  8
0
  6
Continuous
 62
     7
420
 16777215
370
    18
100
AcDbTrace
 10
39.3169105147
 20
159.0897826575
 30
0.0
 11
38.5169105147
 21
156.0897826575
 31
0.0
 12
40.1169105147
 22
156.0897826575
 32
0.0
 13
40.1169105147
 23
156.0897826575
 33
0.0
  0
LINE
  5
259
330
254
100
AcDbEntity
  8
0
  6
Continuous
 62
     7
420
 16777215
370
    18
100
AcDbLine
 10
40.0935297144
 20
85.0582896308
 30
0.0
 11
40.0935297144
 21
83.8647247799
 31
0.0
  0
LINE
  5
25A
330
254
100
AcDbEntity
  8
0
  6
Continuous
 62
     7
420
 16777215
370
    18
100
AcDbLine
 10
40.0935297144
 20
83.8647247799
 30
0.0
 11
46.0476346557
 21
83.8647247799
 31
0.0
  0
LINE
  5
25B
330
254
100
AcDbEntity
  8
0
  6
Continuous
 62
     7
420
 16777215
370
    18
100
AcDbLine
 10
46.0476346557
 20
83.8647247799
 30
0.0
 11
46.0476346557
 21
85.0582896308
 31
0.0
  0
LINE
  5
25C
330
254
100
AcDbEntity
  8
0
  6
Continuous
 62
     7
420
 16777215
370
    18
100
AcDbLine
 10
40.0935297144
 20
95.1212756843
 30
0.0
 11
40.0935297144
 21
96.3148405351
 31
0.0
  0
LINE
  5
25D
330
254
100
AcDbEntity
  8
0
  6
Continuous
 62
     7
420
 16777215
370
    18
100
AcDbLine
 10
40.0935297144
 20
96.3148405351
 30
0.0
 11
46.0476346557
 21
96.3148405351
 31
0.0
  0
LINE
  5
25E
330
254
100
AcDbEntity
  8
0
  6
Continuous
 62
     7
420
 16777215
370
    18
100
AcDbLine
 10
46.0476346557
 20
96.3148405351
 30
0.0
 11
46.0476346557
 21
95.1212756843
 31
0.0
  0
LINE
  5
25F
330
254
100
AcDbEntity
  8
0
  6
Continuous
 62
     7
420
 16777215
370
    18
100
AcDbLine
 10
130.4487806019
 20
21.0897826575
 30
0.0
 11
37.3169105147
 21
21.0897826575
 31
0.0
  0
LINE
  5
260
330
254
100
AcDbEntity
  8
0
  6
Continuous
 62
     7
420
 16777215
370
    18
100
AcDbLine
 10
155.4487806019
 20
159.0897826575
 30
0.0
 11
37.3169105147
 21
159.0897826575
 31
0.0
  0
LINE
  5
261
330
254
100
AcDbEntity
  8
0
  6
Continuous
 62
     7
420
 16777215
370
    18
100
AcDbLine
 10
39.3169105147
 20
21.0897826575
 30
0.0
 11
39.3169105147
 21
159.0897826575
 31
0.0
  0
MTEXT
  5
262
330
254
100
AcDbEntity
  8
0
  6
Continuous
 62
     7
420
 16777215
370
    18
100
AcDbMText
 10
34.5228980611
 20
85.9877612018
 30
0.0
 40
3.7041666667
 41
0.0
 71
     1
 72
     1
  1
138
  7
SLDTEXTSTYLE0
 11
6.123233995736766E-17
 21
1.0
 31
0.0
 73
     1
 44
1.0
  0
MTEXT
  5
263
330
254
100
AcDbEntity
  8
0
  6
Continuous
 62
     7
420
 16777215
370
    18
100
AcDbMText
 10
41.272712903
 20
85.0582896308
 30
0.0
 40
3.7041666667
 41
0.0
 71
     1
 72
     1
  1
5,43
  7
SLDTEXTSTYLE0
 11
6.123233995736766E-17
 21
1.0
 31
0.0
 73
     1
 44
1.0
  0
ENDBLK
  5
256
330
254
100
AcDbEntity
  8
0
100
AcDbBlockEnd
  0
BLOCK
  5
266
330
265
100
AcDbEntity
  8
0
100
AcDbBlockBegin
  2
_D_15
 70
     0
 10
0.0
 20
0.0
 30
0.0
  3
_D_15
  1

  0
SOLID
  5
268
330
265
100
AcDbEntity
  8
0
  6
Continuous
 62
     7
420
 16777215
370
    18
100
AcDbTrace
 10
395.148809314
 20
21.0897826575
 30
0.0
 11
395.948809314
 21
24.0897826575
 31
0.0
 12
394.348809314
 22
24.0897826575
 32
0.0
 13
394.348809314
 23
24.0897826575
 33
0.0
  0
SOLID
  5
269
330
265
100
AcDbEntity
  8
0
  6
Continuous
 62
     7
420
 16777215
370
    18
100
AcDbTrace
 10
395.148809314
 20
209.0897826575
 30
0.0
 11
394.348809314
 21
206.0897826575
 31
0.0
 12
395.948809314
 22
206.0897826575
 32
0.0
 13
395.948809314
 23
206.0897826575
 33
0.0
  0
LINE
  5
26A
330
265
100
AcDbEntity
  8
0
  6
Continuous
 62
     7
420
 16777215
370
    18
100
AcDbLine
 10
395.9254285137
 20
256.976655378
 30
0.0
 11
395.9254285137
 21
255.7830905271
 31
0.0
  0
LINE
  5
26B
330
265
100
AcDbEntity
  8
0
  6
Continuous
 62
     7
420
 16777215
370
    18
100
AcDbLine
 10
395.9254285137
 20
255.7830905271
 30
0.0
 11
401.879533455
 21
255.7830905271
 31
0.0
  0
LINE
  5
26C
330
265
100
AcDbEntity
  8
0
  6
Continuous
 62
     7
420
 16777215
370
    18
100
AcDbLine
 10
401.879533455
 20
255.7830905271
 30
0.0
 11
401.879533455
 21
256.976655378
 31
0.0
  0
LINE
  5
26D
330
265
100
AcDbEntity
  8
0
  6
Continuous
 62
     7
420
 16777215
370
    18
100
AcDbLine
 10
395.9254285137
 20
267.403199031
 30
0.0
 11
395.9254285137
 21
268.5967638818
 31
0.0
  0
LINE
  5
26E
330
265
100
AcDbEntity
  8
0
  6
Continuous
 62
     7
420
 16777215
370
    18
100
AcDbLine
 10
395.9254285137
 20
268.5967638818
 30
0.0
 11
401.879533455
 21
268.5967638818
 31
0.0
  0
LINE
  5
26F
330
265
100
AcDbEntity
  8
0
  6
Continuous
 62
     7
420
 16777215
370
    18
100
AcDbLine
 10
401.879533455
 20
268.5967638818
 30
0.0
 11
401.879533455
 21
267.403199031
 31
0.0
  0
LINE
  5
270
330
265
100
AcDbEntity
  8
0
  6
Continuous
 62
     7
420
 16777215
370
    18
100
AcDbLine
 10
182.4487806019
 20
21.0897826575
 30
0.0
 11
397.148809314
 21
21.0897826575
 31
0.0
  0
LINE
  5
271
330
265
100
AcDbEntity
  8
0
  6
Continuous
 62
     7
420
 16777215
370
    18
100
AcDbLine
 10
157.448780602
 20
209.0897826575
 30
0.0
 11
397.148809314
 21
209.0897826575
 31
0.0
  0
LINE
  5
272
330
265
100
AcDbEntity
  8
0
  6
Continuous
 62
     7
420
 16777215
370
    18
100
AcDbLine
 10
395.148809314
 20
21.0897826575
 30
0.0
 11
395.148809314
 21
209.0897826575
 31
0.0
  0
LINE
  5
273
330
265
100
AcDbEntity
  8
0
  6
Continuous
 62
     7
420
 16777215
370
    18
100
AcDbLine
 10
395.148809314
 20
209.0897826575
 30
0.0
 11
395.148809314
 21
269.7903287327
 31
0.0
  0
MTEXT
  5
274
330
265
100
AcDbEntity
  8
0
  6
Continuous
 62
     7
420
 16777215
370
    18
100
AcDbMText
 10
390.3547968604
 20
257.9438548265
 30
0.0
 40
3.7041666667
 41
0.0
 71
     1
 72
     1
  1
188
  7
SLDTEXTSTYLE0
 11
6.123233995736766E-17
 21
1.0
 31
0.0
 73
     1
 44
1.0
  0
MTEXT
  5
275
330
265
100
AcDbEntity
  8
0
  6
Continuous
 62
     7
420
 16777215
370
    18
100
AcDbMText
 10
397.1046117023
 20
256.976655378
 30
0.0
 40
3.7041666667
 41
0.0
 71
     1
 72
     1
  1
7,40
  7
SLDTEXTSTYLE0
 11
6.123233995736766E-17
 21
1.0
 31
0.0
 73
     1
 44
1.0
  0
ENDBLK
  5
267
330
265
100
AcDbEntity
  8
0
100
AcDbBlockEnd
  0
BLOCK
  5
278
330
277
100
AcDbEntity
  8
0
100
AcDbBlockBegin
  2
_D_16
 70
     0
 10
0.0
 20
0.0
 30
0.0
  3
_D_16
  1

  0
SOLID
  5
27A
330
277
100
AcDbEntity
  8
0
  6
Continuous
 62
     7
420
 16777215
370
    18
100
AcDbTrace
 10
159.6128604078
 20
60.2791858348
 30
0.0
 11
162.0592912572
 21
62.1909850133
 31
0.0
 12
160.7825207651
 22
63.1552760018
 32
0.0
 13
160.7825207651
 23
63.1552760018
 33
0.0
  0
SOLID
  5
27B
330
277
100
AcDbEntity
  8
0
  6
Continuous
 62
     7
420
 16777215
370
    18
100
AcDbTrace
 10
153.284700796
 20
51.9003794802
 30
0.0
 11
150.8382699466
 21
49.9885803017
 31
0.0
 12
152.1150404387
 22
49.0242893132
 32
0.0
 13
152.1150404387
 23
49.0242893132
 33
0.0
  0
LINE
  5
27C
330
277
100
AcDbEntity
  8
0
  6
Continuous
 62
     7
420
 16777215
370
    18
100
AcDbLine
 10
46.8454018479
 20
-62.0693530157
 30
0.0
 11
45.651836997
 21
-62.0693530157
 31
0.0
  0
LINE
  5
27D
330
277
100
AcDbEntity
  8
0
  6
Continuous
 62
     7
420
 16777215
370
    18
100
AcDbLine
 10
45.651836997
 20
-62.0693530157
 30
0.0
 11
45.651836997
 21
-68.023457957
 31
0.0
  0
LINE
  5
27E
330
277
100
AcDbEntity
  8
0
  6
Continuous
 62
     7
420
 16777215
370
    18
100
AcDbLine
 10
45.651836997
 20
-68.023457957
 30
0.0
 11
46.8454018479
 21
-68.023457957
 31
0.0
  0
LINE
  5
27F
330
277
100
AcDbEntity
  8
0
  6
Continuous
 62
     7
420
 16777215
370
    18
100
AcDbLine
 10
56.7231795063
 20
-62.0693530157
 30
0.0
 11
57.9167443571
 21
-62.0693530157
 31
0.0
  0
LINE
  5
280
330
277
100
AcDbEntity
  8
0
  6
Continuous
 62
     7
420
 16777215
370
    18
100
AcDbLine
 10
57.9167443571
 20
-62.0693530157
 30
0.0
 11
57.9167443571
 21
-68.023457957
 31
0.0
  0
LINE
  5
281
330
277
100
AcDbEntity
  8
0
  6
Continuous
 62
     7
420
 16777215
370
    18
100
AcDbLine
 10
57.9167443571
 20
-68.023457957
 30
0.0
 11
56.7231795063
 21
-68.023457957
 31
0.0
  0
LINE
  5
282
330
277
100
AcDbEntity
  8
0
  6
Continuous
 62
     7
420
 16777215
370
    18
100
AcDbLine
 10
159.6128604078
 20
60.2791858348
 30
0.0
 11
164.4343153501
 21
66.6630382955
 31
0.0
  0
LINE
  5
283
330
277
100
AcDbEntity
  8
0
  6
Continuous
 62
     7
420
 16777215
370
    18
100
AcDbLine
 10
153.284700796
 20
51.9003794802
 30
0.0
 11
62.1103101393
 21
-68.8191678576
 31
0.0
  0
LINE
  5
284
330
277
100
AcDbEntity
  8
0
  6
Continuous
 62
     7
420
 16777215
370
    18
100
AcDbLine
 10
159.6128604078
 20
60.2791858348
 30
0.0
 11
153.284700796
 21
51.9003794802
 31
0.0
  0
LINE
  5
285
330
277
100
AcDbEntity
  8
0
  6
Continuous
 62
     7
420
 16777215
370
    18
100
AcDbLine
 10
62.1103101393
 20
-68.8191678576
 30
0.0
 11
34.5763789733
 21
-68.8191678576
 31
0.0
  0
MTEXT
  5
286
330
277
100
AcDbEntity
  8
0
  6
Continuous
 62
     7
420
 16777215
370
    18
100
AcDbMText
 10
34.5763789733
 20
-63.2485362043
 30
0.0
 40
3.7041666667
 41
0.0
 71
     1
 72
     1
  1
%%c
  7
SLDTEXTSTYLE0
 73
     1
 44
1.0
  0
MTEXT
  5
287
330
277
100
AcDbEntity
  8
0
  6
Continuous
 62
     7
420
 16777215
370
    18
100
AcDbMText
 10
40.2327787375
 20
-63.2485362043
 30
0.0
 40
3.7041666667
 41
0.0
 71
     1
 72
     1
  1
11
  7
SLDTEXTSTYLE0
 73
     1
 44
1.0
  0
MTEXT
  5
288
330
277
100
AcDbEntity
  8
0
  6
Continuous
 62
     7
420
 16777215
370
    18
100
AcDbMText
 10
46.8454018479
 20
-63.2485362043
 30
0.0
 40
3.7041666667
 41
0.0
 71
     1
 72
     1
  1
0,41
  7
SLDTEXTSTYLE0
 73
     1
 44
1.0
  0
ENDBLK
  5
279
330
277
100
AcDbEntity
  8
0
100
AcDbBlockEnd
  0
BLOCK
  5
28B
330
28A
100
AcDbEntity
  8
0
100
AcDbBlockBegin
  2
_D_17
 70
     0
 10
0.0
 20
0.0
 30
0.0
  3
_D_17
  1

  0
SOLID
  5
28D
330
28A
100
AcDbEntity
  8
0
  6
Continuous
 62
     7
420
 16777215
370
    18
100
AcDbTrace
 10
159.8179480979
 20
213.1160973973
 30
0.0
 11
162.3567203417
 21
214.9034517255
 31
0.0
 12
161.1296529924
 22
215.930245629
 32
0.0
 13
161.1296529924
 23
215.930245629
 33
0.0
  0
LINE
  5
28E
330
28A
100
AcDbEntity
  8
0
  6
Continuous
 62
     7
420
 16777215
370
    18
100
AcDbLine
 10
246.3489935093
 20
316.8367349315
 30
0.0
 11
245.1554286585
 21
316.8367349315
 31
0.0
  0
LINE
  5
28F
330
28A
100
AcDbEntity
  8
0
  6
Continuous
 62
     7
420
 16777215
370
    18
100
AcDbLine
 10
245.1554286585
 20
316.8367349315
 30
0.0
 11
245.1554286585
 21
310.8826299901
 31
0.0
  0
LINE
  5
290
330
28A
100
AcDbEntity
  8
0
  6
Continuous
 62
     7
420
 16777215
370
    18
100
AcDbLine
 10
245.1554286585
 20
310.8826299901
 30
0.0
 11
246.3489935093
 21
310.8826299901
 31
0.0
  0
LINE
  5
291
330
28A
100
AcDbEntity
  8
0
  6
Continuous
 62
     7
420
 16777215
370
    18
100
AcDbLine
 10
255.8837930031
 20
316.8367349315
 30
0.0
 11
257.077357854
 21
316.8367349315
 31
0.0
  0
LINE
  5
292
330
28A
100
AcDbEntity
  8
0
  6
Continuous
 62
     7
420
 16777215
370
    18
100
AcDbLine
 10
257.077357854
 20
316.8367349315
 30
0.0
 11
257.077357854
 21
310.8826299901
 31
0.0
  0
LINE
  5
293
330
28A
100
AcDbEntity
  8
0
  6
Continuous
 62
     7
420
 16777215
370
    18
100
AcDbLine
 10
257.077357854
 20
310.8826299901
 30
0.0
 11
255.8837930031
 21
310.8826299901
 31
0.0
  0
LINE
  5
294
330
28A
100
AcDbEntity
  8
0
  6
Continuous
 62
     7
420
 16777215
370
    18
100
AcDbLine
 10
159.8179480979
 20
213.1160973973
 30
0.0
 11
240.9618638076
 21
310.0869200896
 31
0.0
  0
LINE
  5
295
330
28A
100
AcDbEntity
  8
0
  6
Continuous
 62
     7
420
 16777215
370
    18
100
AcDbLine
 10
156.448780602
 20
209.0897826575
 30
0.0
 11
159.8179480979
 21
213.1160973973
 31
0.0
  0
LINE
  5
296
330
28A
100
AcDbEntity
  8
0
  6
Continuous
 62
     7
420
 16777215
370
    18
100
AcDbLine
 10
240.9618638076
 20
310.0869200896
 30
0.0
 11
258.2709227048
 21
310.0869200896
 31
0.0
  0
MTEXT
  5
297
330
28A
100
AcDbEntity
  8
0
  6
Continuous
 62
     7
420
 16777215
370
    18
100
AcDbMText
 10
247.9644218751
 20
322.4073665848
 30
0.0
 40
3.7041666667
 41
0.0
 71
     1
 72
     1
  1
R5
  7
SLDTEXTSTYLE0
 73
     1
 44
1.0
  0
MTEXT
  5
298
330
28A
100
AcDbEntity
  8
0
  6
Continuous
 62
     7
420
 16777215
370
    18
100
AcDbMText
 10
246.3489935093
 20
315.6575517429
 30
0.0
 40
3.7041666667
 41
0.0
 71
     1
 72
     1
  1
0,21
  7
SLDTEXTSTYLE0
 73
     1
 44
1.0
  0
ENDBLK
  5
28C
330
28A
100
AcDbEntity
  8
0
100
AcDbBlockEnd
  0
BLOCK
  5
29A
330
299
100
AcDbEntity
  8
0
100
AcDbBlockBegin
  2
SW_CENTERMARKSYMBOL_3
 70
     0
 10
0.0
 20
0.0
 30
0.0
  3
SW_CENTERMARKSYMBOL_3
  1

  0
LINE
  5
29C
330
299
100
AcDbEntity
  8
0
  6
Continuous
 62
     0
370
    18
100
AcDbLine
 10
0.0
 20
0.0
 30
0.0
 11
0.0
 21
2.5
 31
0.0
  0
LINE
  5
29D
330
299
100
AcDbEntity
  8
0
  6
Continuous
 62
     0
370
    18
100
AcDbLine
 10
0.0
 20
0.0
 30
0.0
 11
-2.5
 21
0.0
 31
0.0
  0
LINE
  5
29E
330
299
100
AcDbEntity
  8
0
  6
Continuous
 62
     0
370
    18
100
AcDbLine
 10
0.0
 20
0.0
 30
0.0
 11
0.0
 21
-2.5
 31
0.0
  0
LINE
  5
29F
330
299
100
AcDbEntity
  8
0
  6
Continuous
 62
     0
370
    18
100
AcDbLine
 10
0.0
 20
0.0
 30
0.0
 11
2.5
 21
0.0
 31
0.0
  0
LINE
  5
2A0
330
299
100
AcDbEntity
  8
0
  6
Continuous
 62
     0
370
    18
100
AcDbLine
 10
0.0
 20
5.0
 30
0.0
 11
0.0
 21
7.75
 31
0.0
  0
LINE
  5
2A1
330
299
100
AcDbEntity
  8
0
  6
Continuous
 62
     0
370
    18
100
AcDbLine
 10
-5.0
 20
0.0
 30
0.0
 11
-7.75
 21
0.0
 31
0.0
  0
LINE
  5
2A2
330
299
100
AcDbEntity
  8
0
  6
Continuous
 62
     0
370
    18
100
AcDbLine
 10
0.0
 20
-5.0
 30
0.0
 11
0.0
 21
-7.75
 31
0.0
  0
LINE
  5
2A3
330
299
100
AcDbEntity
  8
0
  6
Continuous
 62
     0
370
    18
100
AcDbLine
 10
5.0
 20
0.0
 30
0.0
 11
7.75
 21
0.0
 31
0.0
  0
ENDBLK
  5
29B
330
299
100
AcDbEntity
  8
0
100
AcDbBlockEnd
  0
BLOCK
  5
445
330
444
100
AcDbEntity
  8
0
100
AcDbBlockBegin
  2
SW_CENTERMARKSYMBOL_4
 70
     0
 10
0.0
 20
0.0
 30
0.0
  3
SW_CENTERMARKSYMBOL_4
  1

  0
LINE
  5
447
330
444
100
AcDbEntity
  8
0
  6
Continuous
 62
     0
370
    18
100
AcDbLine
 10
0.0
 20
0.0
 30
0.0
 11
0.0
 21
2.5
 31
0.0
  0
LINE
  5
448
330
444
100
AcDbEntity
  8
0
  6
Continuous
 62
     0
370
    18
100
AcDbLine
 10
0.0
 20
0.0
 30
0.0
 11
-2.5
 21
0.0
 31
0.0
  0
LINE
  5
449
330
444
100
AcDbEntity
  8
0
  6
Continuous
 62
     0
370
    18
100
AcDbLine
 10
0.0
 20
0.0
 30
0.0
 11
0.0
 21
-2.5
 31
0.0
  0
LINE
  5
44A
330
444
100
AcDbEntity
  8
0
  6
Continuous
 62
     0
370
    18
100
AcDbLine
 10
0.0
 20
0.0
 30
0.0
 11
2.5
 21
0.0
 31
0.0
  0
LINE
  5
44B
330
444
100
AcDbEntity
  8
0
  6
Continuous
 62
     0
370
    18
100
AcDbLine
 10
0.0
 20
5.0
 30
0.0
 11
0.0
 21
9.0
 31
0.0
  0
LINE
  5
44C
330
444
100
AcDbEntity
  8
0
  6
Continuous
 62
     0
370
    18
100
AcDbLine
 10
-5.0
 20
0.0
 30
0.0
 11
-9.0
 21
0.0
 31
0.0
  0
LINE
  5
44D
330
444
100
AcDbEntity
  8
0
  6
Continuous
 62
     0
370
    18
100
AcDbLine
 10
0.0
 20
-5.0
 30
0.0
 11
0.0
 21
-9.0
 31
0.0
  0
LINE
  5
44E
330
444
100
AcDbEntity
  8
0
  6
Continuous
 62
     0
370
    18
100
AcDbLine
 10
5.0
 20
0.0
 30
0.0
 11
9.0
 21
0.0
 31
0.0
  0
ENDBLK
  5
446
330
444
100
AcDbEntity
  8
0
100
AcDbBlockEnd
  0
BLOCK
  5
451
330
450
100
AcDbEntity
  8
0
100
AcDbBlockBegin
  2
SW_CENTERMARKSYMBOL_5
 70
     0
 10
0.0
 20
0.0
 30
0.0
  3
SW_CENTERMARKSYMBOL_5
  1

  0
LINE
  5
453
330
450
100
AcDbEntity
  8
0
  6
Continuous
 62
     0
370
    18
100
AcDbLine
 10
0.0
 20
0.0
 30
0.0
 11
0.0
 21
2.5
 31
0.0
  0
LINE
  5
454
330
450
100
AcDbEntity
  8
0
  6
Continuous
 62
     0
370
    18
100
AcDbLine
 10
0.0
 20
0.0
 30
0.0
 11
-2.5
 21
0.0
 31
0.0
  0
LINE
  5
455
330
450
100
AcDbEntity
  8
0
  6
Continuous
 62
     0
370
    18
100
AcDbLine
 10
0.0
 20
0.0
 30
0.0
 11
0.0
 21
-2.5
 31
0.0
  0
LINE
  5
456
330
450
100
AcDbEntity
  8
0
  6
Continuous
 62
     0
370
    18
100
AcDbLine
 10
0.0
 20
0.0
 30
0.0
 11
2.5
 21
0.0
 31
0.0
  0
LINE
  5
457
330
450
100
AcDbEntity
  8
0
  6
Continuous
 62
     0
370
    18
100
AcDbLine
 10
0.0
 20
5.0
 30
0.0
 11
0.0
 21
9.0
 31
0.0
  0
LINE
  5
458
330
450
100
AcDbEntity
  8
0
  6
Continuous
 62
     0
370
    18
100
AcDbLine
 10
-5.0
 20
0.0
 30
0.0
 11
-9.0
 21
0.0
 31
0.0
  0
LINE
  5
459
330
450
100
AcDbEntity
  8
0
  6
Continuous
 62
     0
370
    18
100
AcDbLine
 10
0.0
 20
-5.0
 30
0.0
 11
0.0
 21
-9.0
 31
0.0
  0
LINE
  5
45A
330
450
100
AcDbEntity
  8
0
  6
Continuous
 62
     0
370
    18
100
AcDbLine
 10
5.0
 20
0.0
 30
0.0
 11
9.0
 21
0.0
 31
0.0
  0
ENDBLK
  5
452
330
450
100
AcDbEntity
  8
0
100
AcDbBlockEnd
  0
BLOCK
  5
45D
330
45C
100
AcDbEntity
  8
0
100
AcDbBlockBegin
  2
SW_CENTERMARKSYMBOL_6
 70
     0
 10
0.0
 20
0.0
 30
0.0
  3
SW_CENTERMARKSYMBOL_6
  1

  0
LINE
  5
45F
330
45C
100
AcDbEntity
  8
0
  6
Continuous
 62
     0
370
    18
100
AcDbLine
 10
0.0
 20
0.0
 30
0.0
 11
0.0
 21
2.5
 31
0.0
  0
LINE
  5
460
330
45C
100
AcDbEntity
  8
0
  6
Continuous
 62
     0
370
    18
100
AcDbLine
 10
0.0
 20
0.0
 30
0.0
 11
-2.5
 21
0.0
 31
0.0
  0
LINE
  5
461
330
45C
100
AcDbEntity
  8
0
  6
Continuous
 62
     0
370
    18
100
AcDbLine
 10
0.0
 20
0.0
 30
0.0
 11
0.0
 21
-2.5
 31
0.0
  0
LINE
  5
462
330
45C
100
AcDbEntity
  8
0
  6
Continuous
 62
     0
370
    18
100
AcDbLine
 10
0.0
 20
0.0
 30
0.0
 11
2.5
 21
0.0
 31
0.0
  0
LINE
  5
463
330
45C
100
AcDbEntity
  8
0
  6
Continuous
 62
     0
370
    18
100
AcDbLine
 10
0.0
 20
5.0
 30
0.0
 11
0.0
 21
9.0
 31
0.0
  0
LINE
  5
464
330
45C
100
AcDbEntity
  8
0
  6
Continuous
 62
     0
370
    18
100
AcDbLine
 10
-5.0
 20
0.0
 30
0.0
 11
-9.0
 21
0.0
 31
0.0
  0
LINE
  5
465
330
45C
100
AcDbEntity
  8
0
  6
Continuous
 62
     0
370
    18
100
AcDbLine
 10
0.0
 20
-5.0
 30
0.0
 11
0.0
 21
-9.0
 31
0.0
  0
LINE
  5
466
330
45C
100
AcDbEntity
  8
0
  6
Continuous
 62
     0
370
    18
100
AcDbLine
 10
5.0
 20
0.0
 30
0.0
 11
9.0
 21
0.0
 31
0.0
  0
ENDBLK
  5
45E
330
45C
100
AcDbEntity
  8
0
100
AcDbBlockEnd
  0
BLOCK
  5
4FC
330
4FB
100
AcDbEntity
  8
0
100
AcDbBlockBegin
  2
SW_CENTERMARKSYMBOL_7
 70
     0
 10
0.0
 20
0.0
 30
0.0
  3
SW_CENTERMARKSYMBOL_7
  1

  0
LINE
  5
4FE
330
4FB
100
AcDbEntity
  8
0
  6
Continuous
 62
     0
370
    18
100
AcDbLine
 10
0.0
 20
0.0
 30
0.0
 11
0.0
 21
2.5
 31
0.0
  0
LINE
  5
4FF
330
4FB
100
AcDbEntity
  8
0
  6
Continuous
 62
     0
370
    18
100
AcDbLine
 10
0.0
 20
0.0
 30
0.0
 11
-2.5
 21
0.0
 31
0.0
  0
LINE
  5
500
330
4FB
100
AcDbEntity
  8
0
  6
Continuous
 62
     0
370
    18
100
AcDbLine
 10
0.0
 20
0.0
 30
0.0
 11
0.0
 21
-2.5
 31
0.0
  0
LINE
  5
501
330
4FB
100
AcDbEntity
  8
0
  6
Continuous
 62
     0
370
    18
100
AcDbLine
 10
0.0
 20
0.0
 30
0.0
 11
2.5
 21
0.0
 31
0.0
  0
LINE
  5
502
330
4FB
100
AcDbEntity
  8
0
  6
Continuous
 62
     0
370
    18
100
AcDbLine
 10
0.0
 20
5.0
 30
0.0
 11
0.0
 21
7.75
 31
0.0
  0
LINE
  5
503
330
4FB
100
AcDbEntity
  8
0
  6
Continuous
 62
     0
370
    18
100
AcDbLine
 10
-5.0
 20
0.0
 30
0.0
 11
-7.75
 21
0.0
 31
0.0
  0
LINE
  5
504
330
4FB
100
AcDbEntity
  8
0
  6
Continuous
 62
     0
370
    18
100
AcDbLine
 10
0.0
 20
-5.0
 30
0.0
 11
0.0
 21
-7.75
 31
0.0
  0
LINE
  5
505
330
4FB
100
AcDbEntity
  8
0
  6
Continuous
 62
     0
370
    18
100
AcDbLine
 10
5.0
 20
0.0
 30
0.0
 11
7.75
 21
0.0
 31
0.0
  0
ENDBLK
  5
4FD
330
4FB
100
AcDbEntity
  8
0
100
AcDbBlockEnd
  0
ENDSEC
  0
SECTION
  2
ENTITIES
  0
SPLINE
  5
73
330
1F
100
AcDbEntity
  8
0
  6
Continuous
 62
     7
370
    25
100
AcDbSpline
210
0.0
220
0.0
230
1.0
 70
     8
 71
     3
 72
     8
 73
     4
 74
     0
 42
0.000000001
 43
0.00000001
 40
0.0
 40
0.0
 40
0.0
 40
0.0
 40
1.0
 40
1.0
 40
1.0
 40
1.0
 10
-39.06340582002341
 20
419.1081330201123
 30
0.0
 10
-39.05806418322003
 20
419.1081330201123
 30
0.0
 10
-39.05272255385109
 20
419.1080550122085
 30
0.0
 10
-39.0473809319117
 20
419.1078989993312
 30
0.0
  0
LINE
  5
74
330
1F
100
AcDbEntity
  8
0
  6
Continuous
 62
     7
370
    25
100
AcDbLine
 10
-39.0473809319
 20
419.1078989993
 30
0.0
 11
-39.0473809319
 21
412.8781330201
 31
0.0
  0
LINE
  5
75
330
1F
100
AcDbEntity
  8
0
  6
Continuous
 62
     7
370
    25
100
AcDbLine
 10
-39.0473809319
 20
412.8781330201
 30
0.0
 11
-470.5873809319
 21
412.8781330201
 31
0.0
  0
LINE
  5
76
330
1F
100
AcDbEntity
  8
0
  6
Continuous
 62
     7
370
    25
100
AcDbLine
 10
-470.5873809319
 20
412.8781330201
 30
0.0
 11
-470.5873809319
 21
419.1078989993
 31
0.0
  0
SPLINE
  5
77
330
1F
100
AcDbEntity
  8
0
  6
Continuous
 62
     7
370
    25
100
AcDbSpline
210
0.0
220
0.0
230
1.0
 70
     8
 71
     3
 72
     8
 73
     4
 74
     0
 42
0.000000001
 43
0.00000001
 40
0.0
 40
0.0
 40
0.0
 40
0.0
 40
1.0
 40
1.0
 40
1.0
 40
1.0
 10
-470.5873809319119
 20
419.1078989993312
 30
0.0
 10
-470.5820392951094
 20
419.1080550122085
 30
0.0
 10
-470.5766976657406
 20
419.1081330201123
 30
0.0
 10
-470.5713560438002
 20
419.1081330201123
 30
0.0
  0
LINE
  5
78
330
1F
100
AcDbEntity
  8
0
  6
Continuous
 62
     7
370
    25
100
AcDbLine
 10
-39.06340582
 20
419.1081330201
 30
0.0
 11
-470.5713560438
 21
419.1081330201
 31
0.0
  0
ARC
  5
79
330
1F
100
AcDbEntity
  8
0
  6
Continuous
 62
     7
370
    25
100
AcDbCircle
 10
-42.0473809319
 20
407.1045707738
 30
0.0
 40
3.000000000000057
100
AcDbArc
 50
270.0
 51
360.0
  0
LINE
  5
7A
330
1F
100
AcDbEntity
  8
0
  6
Continuous
 62
     7
370
    25
100
AcDbLine
 10
-467.5873809319
 20
404.1045707738
 30
0.0
 11
-42.0473809319
 21
404.1045707738
 31
0.0
  0
ARC
  5
7B
330
1F
100
AcDbEntity
  8
0
  6
Continuous
 62
     7
370
    25
100
AcDbCircle
 10
-467.5873809319
 20
407.1045707738
 30
0.0
 40
3.000000000000057
100
AcDbArc
 50
180.0
 51
270.0
  0
LINE
  5
7C
330
1F
100
AcDbEntity
  8
0
  6
Continuous
 62
     7
370
    25
100
AcDbLine
 10
-470.5873809319
 20
412.8781330201
 30
0.0
 11
-470.5873809319
 21
407.1045707738
 31
0.0
  0
LINE
  5
7D
330
1F
100
AcDbEntity
  8
0
  6
Continuous
 62
     7
370
    25
100
AcDbLine
 10
-39.0473809319
 20
407.1045707738
 30
0.0
 11
-39.0473809319
 21
412.8781330201
 31
0.0
  0
LINE
  5
7E
330
1F
100
AcDbEntity
  8
0
  6
Continuous
 62
     7
370
    25
100
AcDbLine
 10
-470.6398393249
 20
419.1078320291
 30
0.0
 11
-470.6103500754
 21
416.1079769686
 31
0.0
  0
SPLINE
  5
7F
330
1F
100
AcDbEntity
  8
0
  6
Continuous
 62
     7
370
    25
100
AcDbSpline
210
0.0
220
0.0
230
1.0
 70
     8
 71
     3
 72
     8
 73
     4
 74
     0
 42
0.000000001
 43
0.00000001
 40
0.0
 40
0.0
 40
0.0
 40
0.0
 40
1.0
 40
1.0
 40
1.0
 40
1.0
 10
-470.5785999833573
 20
419.1081330201123
 30
0.0
 10
-470.5990134259629
 20
419.1081330201123
 30
0.0
 10
-470.6194268685495
 20
419.1080326881715
 30
0.0
 10
-470.6398393249191
 20
419.1078320291372
 30
0.0
  0
LINE
  5
80
330
1F
100
AcDbEntity
  8
0
  6
Continuous
 62
     7
370
    25
100
AcDbLine
 10
-476.8085999834
 20
412.8781330201
 30
0.0
 11
-473.8085999834
 21
412.8781330201
 31
0.0
  0
ARC
  5
81
330
1F
100
AcDbEntity
  8
0
  6
Continuous
 62
     7
370
    25
100
AcDbCircle
 10
-470.5785999834
 20
412.8781330201
 30
0.0
 40
6.230000000000058
100
AcDbArc
 50
90.5632122503
 51
180.0
  0
ARC
  5
82
330
1F
100
AcDbEntity
  8
0
  6
Continuous
 62
     7
370
    25
100
AcDbCircle
 10
-470.5785999834
 20
412.8781330201
 30
0.0
 40
3.230000000000017
100
AcDbArc
 50
90.5632122503
 51
180.0
  0
LINE
  5
83
330
1F
100
AcDbEntity
  8
0
  6
Continuous
 62
     7
370
    25
100
AcDbLine
 10
-38.9949225389
 20
419.1078320291
 30
0.0
 11
-39.0244117885
 21
416.1079769686
 31
0.0
  0
ARC
  5
84
330
1F
100
AcDbEntity
  8
0
  6
Continuous
 62
     7
370
    25
100
AcDbCircle
 10
-39.0561618805
 20
412.8781330201
 30
0.0
 40
6.230000000000058
100
AcDbArc
 50
0.0
 51
89.4367877497
  0
LINE
  5
85
330
1F
100
AcDbEntity
  8
0
  6
Continuous
 62
     7
370
    25
100
AcDbLine
 10
-32.8261618805
 20
412.8781330201
 30
0.0
 11
-35.8261618805
 21
412.8781330201
 31
0.0
  0
ARC
  5
86
330
1F
100
AcDbEntity
  8
0
  6
Continuous
 62
     7
370
    25
100
AcDbCircle
 10
-39.0561618805
 20
412.8781330201
 30
0.0
 40
3.230000000000073
100
AcDbArc
 50
360.0
 51
89.4367877497
  0
SPLINE
  5
87
330
1F
100
AcDbEntity
  8
0
  6
Continuous
 62
     7
370
    25
100
AcDbSpline
210
0.0
220
0.0
230
1.0
 70
     8
 71
     3
 72
     8
 73
     4
 74
     0
 42
0.000000001
 43
0.00000001
 40
0.0
 40
0.0
 40
0.0
 40
0.0
 40
1.0
 40
1.0
 40
1.0
 40
1.0
 10
-38.99492253890455
 20
419.1078320291372
 30
0.0
 10
-39.01533499527224
 20
419.1080326881715
 30
0.0
 10
-39.03574843785931
 20
419.1081330201123
 30
0.0
 10
-39.05616188046637
 20
419.1081330201123
 30
0.0
  0
ARC
  5
88
330
1F
100
AcDbEntity
  8
0
  6
Continuous
 62
     7
370
    25
100
AcDbCircle
 10
-467.1885999834
 20
257.1990395376
 30
0.0
 40
6.619999999999948
100
AcDbArc
 50
180.0
 51
225.0
  0
LINE
  5
89
330
1F
100
AcDbEntity
  8
0
  6
Continuous
 62
     7
370
    25
100
AcDbLine
 10
-473.9909672184
 20
250.3966723025
 30
0.0
 11
-471.8696468748
 21
252.5179926461
 31
0.0
  0
ARC
  5
8A
330
1F
100
AcDbEntity
  8
0
  6
Continuous
 62
     7
370
    25
100
AcDbCircle
 10
-467.1885999834
 20
257.1990395376
 30
0.0
 40
9.619999999999948
100
AcDbArc
 50
180.0
 51
225.0
  0
LINE
  5
8B
330
1F
100
AcDbEntity
  8
0
  6
Continuous
 62
     7
370
    25
100
AcDbLine
 10
-476.8085999834
 20
257.1990395376
 30
0.0
 11
-473.8085999834
 21
257.1990395376
 31
0.0
  0
LINE
  5
8C
330
1F
100
AcDbEntity
  8
0
  6
Continuous
 62
     7
370
    25
100
AcDbLine
 10
-44.8030592714
 20
238.4953138937
 30
0.0
 11
-47.8030592714
 21
238.4953138937
 31
0.0
  0
ARC
  5
8D
330
1F
100
AcDbEntity
  8
0
  6
Continuous
 62
     7
370
    25
100
AcDbCircle
 10
-38.1830592714
 20
238.4953138937
 30
0.0
 40
9.619999999999973
100
AcDbArc
 50
135.0
 51
180.0
  0
LINE
  5
8E
330
1F
100
AcDbEntity
  8
0
  6
Continuous
 62
     7
370
    25
100
AcDbLine
 10
-42.8641061628
 20
243.1763607852
 30
0.0
 11
-44.9854265064
 21
245.2976811287
 31
0.0
  0
ARC
  5
8F
330
1F
100
AcDbEntity
  8
0
  6
Continuous
 62
     7
370
    25
100
AcDbCircle
 10
-38.1830592714
 20
238.4953138937
 30
0.0
 40
6.619999999999955
100
AcDbArc
 50
135.0
 51
180.0
  0
LINE
  5
90
330
1F
100
AcDbEntity
  8
0
  6
Continuous
 62
     7
370
    25
100
AcDbLine
 10
-35.8261618805
 20
412.8781330201
 30
0.0
 11
-35.8261618805
 21
257.1990395376
 31
0.0
  0
LINE
  5
91
330
1F
100
AcDbEntity
  8
0
  6
Continuous
 62
     7
370
    25
100
AcDbLine
 10
-32.8261618805
 20
257.1990395376
 30
0.0
 11
-35.8261618805
 21
257.1990395376
 31
0.0
  0
LINE
  5
92
330
1F
100
AcDbEntity
  8
0
  6
Continuous
 62
     7
370
    25
100
AcDbLine
 10
-32.8261618805
 20
412.8781330201
 30
0.0
 11
-32.8261618805
 21
257.1990395376
 31
0.0
  0
LINE
  5
93
330
1F
100
AcDbEntity
  8
0
  6
Continuous
 62
     7
370
    25
100
AcDbLine
 10
-47.8030592714
 20
31.0897826575
 30
0.0
 11
-44.8030592714
 21
31.0897826575
 31
0.0
  0
LINE
  5
94
330
1F
100
AcDbEntity
  8
0
  6
Continuous
 62
     7
370
    25
100
AcDbLine
 10
-44.8030592714
 20
238.4953138937
 30
0.0
 11
-44.8030592714
 21
31.0897826575
 31
0.0
  0
LINE
  5
95
330
1F
100
AcDbEntity
  8
0
  6
Continuous
 62
     7
370
    25
100
AcDbLine
 10
-47.8030592714
 20
238.4953138937
 30
0.0
 11
-47.8030592714
 21
31.0897826575
 31
0.0
  0
LINE
  5
96
330
1F
100
AcDbEntity
  8
0
  6
Continuous
 62
     7
370
    25
100
AcDbLine
 10
-461.8317025925
 20
238.4953138937
 30
0.0
 11
-464.8317025925
 21
238.4953138937
 31
0.0
  0
ARC
  5
97
330
1F
100
AcDbEntity
  8
0
  6
Continuous
 62
     7
370
    25
100
AcDbCircle
 10
-471.4517025925
 20
238.4953138937
 30
0.0
 40
6.619999999999994
100
AcDbArc
 50
0.0
 51
45.0
  0
LINE
  5
98
330
1F
100
AcDbEntity
  8
0
  6
Continuous
 62
     7
370
    25
100
AcDbLine
 10
-464.6493353574
 20
245.2976811287
 30
0.0
 11
-466.770655701
 21
243.1763607852
 31
0.0
  0
ARC
  5
99
330
1F
100
AcDbEntity
  8
0
  6
Continuous
 62
     7
370
    25
100
AcDbCircle
 10
-471.4517025925
 20
238.4953138937
 30
0.0
 40
9.619999999999978
100
AcDbArc
 50
0.0
 51
45.0
  0
ARC
  5
9A
330
1F
100
AcDbEntity
  8
0
  6
Continuous
 62
     7
370
    25
100
AcDbCircle
 10
-42.4461618805
 20
257.1990395376
 30
0.0
 40
6.620000000000012
100
AcDbArc
 50
315.0
 51
0.0
  0
ARC
  5
9B
330
1F
100
AcDbEntity
  8
0
  6
Continuous
 62
     7
370
    25
100
AcDbCircle
 10
-42.4461618805
 20
257.1990395376
 30
0.0
 40
9.620000000000012
100
AcDbArc
 50
315.0
 51
0.0
  0
LINE
  5
9C
330
1F
100
AcDbEntity
  8
0
  6
Continuous
 62
     7
370
    25
100
AcDbLine
 10
-35.6437946455
 20
250.3966723025
 30
0.0
 11
-37.765114989
 21
252.5179926461
 31
0.0
  0
LINE
  5
9D
330
1F
100
AcDbEntity
  8
0
  6
Continuous
 62
     7
370
    25
100
AcDbLine
 10
-473.8085999834
 20
257.1990395376
 30
0.0
 11
-473.8085999834
 21
412.8781330201
 31
0.0
  0
LINE
  5
9E
330
1F
100
AcDbEntity
  8
0
  6
Continuous
 62
     7
370
    25
100
AcDbLine
 10
-476.8085999834
 20
257.1990395376
 30
0.0
 11
-476.8085999834
 21
412.8781330201
 31
0.0
  0
LINE
  5
9F
330
1F
100
AcDbEntity
  8
0
  6
Continuous
 62
     7
370
    25
100
AcDbLine
 10
-35.6437946455
 20
250.3966723025
 30
0.0
 11
-42.8641061628
 21
243.1763607852
 31
0.0
  0
LINE
  5
A0
330
1F
100
AcDbEntity
  8
0
  6
Continuous
 62
     7
370
    25
100
AcDbLine
 10
-37.765114989
 20
252.5179926461
 30
0.0
 11
-44.9854265064
 21
245.2976811287
 31
0.0
  0
LINE
  5
A1
330
1F
100
AcDbEntity
  8
0
  6
Continuous
 62
     7
370
    25
100
AcDbLine
 10
-461.8317025925
 20
31.0897826575
 30
0.0
 11
-464.8317025925
 21
31.0897826575
 31
0.0
  0
LINE
  5
A2
330
1F
100
AcDbEntity
  8
0
  6
Continuous
 62
     7
370
    25
100
AcDbLine
 10
-461.8317025925
 20
31.0897826575
 30
0.0
 11
-461.8317025925
 21
238.4953138937
 31
0.0
  0
LINE
  5
A3
330
1F
100
AcDbEntity
  8
0
  6
Continuous
 62
     7
370
    25
100
AcDbLine
 10
-464.8317025925
 20
31.0897826575
 30
0.0
 11
-464.8317025925
 21
238.4953138937
 31
0.0
  0
LINE
  5
A4
330
1F
100
AcDbEntity
  8
0
  6
Continuous
 62
     7
370
    25
100
AcDbLine
 10
-464.6493353574
 20
245.2976811287
 30
0.0
 11
-471.8696468748
 21
252.5179926461
 31
0.0
  0
LINE
  5
A5
330
1F
100
AcDbEntity
  8
0
  6
Continuous
 62
     7
370
    25
100
AcDbLine
 10
-466.770655701
 20
243.1763607852
 30
0.0
 11
-473.9909672184
 21
250.3966723025
 31
0.0
  0
LINE
  5
A6
330
1F
100
AcDbEntity
  8
0
  6
Continuous
 62
     7
370
    25
100
AcDbLine
 10
-461.8317025925
 20
21.0897826575
 30
0.0
 11
-464.8317025925
 21
21.0897826575
 31
0.0
  0
LINE
  5
A7
330
1F
100
AcDbEntity
  8
0
  6
Continuous
 62
     7
370
    25
100
AcDbLine
 10
-461.8317025925
 20
21.0897826575
 30
0.0
 11
-461.8317025925
 21
31.0897826575
 31
0.0
  0
LINE
  5
A8
330
1F
100
AcDbEntity
  8
0
  6
Continuous
 62
     7
370
    25
100
AcDbLine
 10
-464.8317025925
 20
21.0897826575
 30
0.0
 11
-464.8317025925
 21
31.0897826575
 31
0.0
  0
LINE
  5
A9
330
1F
100
AcDbEntity
  8
0
  6
Continuous
 62
     7
370
    25
100
AcDbLine
 10
-47.8030592714
 20
21.0897826575
 30
0.0
 11
-44.8030592714
 21
21.0897826575
 31
0.0
  0
LINE
  5
AA
330
1F
100
AcDbEntity
  8
0
  6
Continuous
 62
     7
370
    25
100
AcDbLine
 10
-44.8030592714
 20
21.0897826575
 30
0.0
 11
-44.8030592714
 21
31.0897826575
 31
0.0
  0
LINE
  5
AB
330
1F
100
AcDbEntity
  8
0
  6
Continuous
 62
     7
370
    25
100
AcDbLine
 10
-47.8030592714
 20
21.0897826575
 30
0.0
 11
-47.8030592714
 21
31.0897826575
 31
0.0
  0
LINE
  5
AC
330
1F
100
AcDbEntity
  8
0
  6
Continuous
 62
     7
370
    25
100
AcDbLine
 10
-470.5713560438
 20
419.1081330201
 30
0.0
 11
-470.5785999834
 21
419.1081330201
 31
0.0
  0
LINE
  5
AD
330
1F
100
AcDbEntity
  8
0
  6
Continuous
 62
     7
370
    25
100
AcDbLine
 10
-39.0561618805
 20
419.1081330201
 30
0.0
 11
-39.06340582
 21
419.1081330201
 31
0.0
  0
DIMENSION
  5
AE
330
1F
100
AcDbEntity
  8
0
  6
Continuous
 62
     7
420
 16777215
370
    18
100
AcDbDimension
  2
_D
 10
-32.8261618805
 20
449.1156580201
 30
0.0
 11
-224.4081960884
 21
449.1156580201
 31
0.0
 70
   160
  1
<>
 71
     2
 42
-1.0
  3
SLDDIMSTYLE0
100
AcDbAlignedDimension
 13
-476.8085999834
 23
412.8781330201
 33
0.0
 14
-32.8261618805
 24
412.8781330201
 34
0.0
 50
0.0
100
AcDbRotatedDimension
  0
DIMENSION
  5
C1
330
1F
100
AcDbEntity
  8
0
  6
Continuous
 62
     7
420
 16777215
370
    18
100
AcDbDimension
  2
_D_1
 10
-47.8030592714
 20
98.6330887236
 30
0.0
 11
-254.8173809319
 21
98.6330887236
 31
0.0
 70
   160
  1
<>
 71
     2
 42
-1.0
  3
SLDDIMSTYLE0
100
AcDbAlignedDimension
 13
-461.8317025925
 23
21.0897826575
 33
0.0
 14
-47.8030592714
 24
21.0897826575
 34
0.0
 50
0.0
100
AcDbRotatedDimension
  0
DIMENSION
  5
D0
330
1F
100
AcDbEntity
  8
0
  6
Continuous
 62
     7
420
 16777215
370
    18
100
AcDbDimension
  2
_D_2
 10
-506.8086249834
 20
419.1081330201
 30
0.0
 11
-506.8086249834
 21
220.0989578388
 31
0.0
 70
   160
  1
<>
 71
     2
 42
-1.0
  3
SLDDIMSTYLE0
100
AcDbAlignedDimension
 13
-464.8317025925
 23
21.0897826575
 33
0.0
 14
-470.5713560438
 24
419.1081330201
 34
0.0
 50
90.0
100
AcDbRotatedDimension
  0
SPLINE
  5
E1
330
1F
100
AcDbEntity
  8
0
  6
Continuous
 62
     7
370
    25
100
AcDbSpline
210
0.0
220
0.0
230
1.0
 70
     8
 71
     3
 72
     8
 73
     4
 74
     0
 42
0.000000001
 43
0.00000001
 40
0.0
 40
0.0
 40
0.0
 40
0.0
 40
1.0
 40
1.0
 40
1.0
 40
1.0
 10
-39.06340582002341
 20
-179.9907874099088
 30
0.0
 10
-39.05806418322003
 20
-180.0087871543178
 30
0.0
 10
-39.05272255385109
 20
-180.026786898715
 30
0.0
 10
-39.0473809319117
 20
-180.0447859669868
 30
0.0
  0
LINE
  5
E2
330
1F
100
AcDbEntity
  8
0
  6
Continuous
 62
     7
370
    25
100
AcDbLine
 10
-39.0473809319
 20
-180.044785967
 30
0.0
 11
-39.0473809319
 21
-186.2207874099
 31
0.0
  0
LINE
  5
E3
330
1F
100
AcDbEntity
  8
0
  6
Continuous
 62
     7
370
    25
100
AcDbLine
 10
-39.0473809319
 20
-186.2207874099
 30
0.0
 11
-470.5873809319
 21
-186.2207874099
 31
0.0
  0
LINE
  5
E4
330
1F
100
AcDbEntity
  8
0
  6
Continuous
 62
     7
370
    25
100
AcDbLine
 10
-470.5873809319
 20
-186.2207874099
 30
0.0
 11
-470.5873809319
 21
-180.044785967
 31
0.0
  0
SPLINE
  5
E5
330
1F
100
AcDbEntity
  8
0
  6
Continuous
 62
     7
370
    25
100
AcDbSpline
210
0.0
220
0.0
230
1.0
 70
     8
 71
     3
 72
     8
 73
     4
 74
     0
 42
0.000000001
 43
0.00000001
 40
0.0
 40
0.0
 40
0.0
 40
0.0
 40
1.0
 40
1.0
 40
1.0
 40
1.0
 10
-470.5873809319119
 20
-180.0447859669868
 30
0.0
 10
-470.5820392951094
 20
-180.026786898715
 30
0.0
 10
-470.5766976657406
 20
-180.008787154318
 30
0.0
 10
-470.5713560438002
 20
-179.9907874099088
 30
0.0
  0
LINE
  5
E6
330
1F
100
AcDbEntity
  8
0
  6
Continuous
 62
     7
370
    25
100
AcDbLine
 10
-39.06340582
 20
-179.9907874099
 30
0.0
 11
-470.5713560438
 21
-179.9907874099
 31
0.0
  0
LINE
  5
E7
330
1F
100
AcDbEntity
  8
0
  6
Continuous
 62
     7
370
    25
100
AcDbLine
 10
-476.8085999834
 20
-109.9943496563
 30
0.0
 11
-470.6398393249
 21
-109.9943496563
 31
0.0
  0
SPLINE
  5
E8
330
1F
100
AcDbEntity
  8
0
  6
Continuous
 62
     7
370
    25
100
AcDbSpline
210
0.0
220
0.0
230
1.0
 70
     8
 71
     3
 72
     8
 73
     4
 74
     0
 42
0.000000001
 43
0.00000001
 40
0.0
 40
0.0
 40
0.0
 40
0.0
 40
1.0
 40
1.0
 40
1.0
 40
1.0
 10
-470.6398393249191
 20
-109.9943496562633
 30
0.0
 10
-470.6194268685501
 20
-110.0004075889344
 30
0.0
 10
-470.5990134259629
 20
-110.0064655107606
 30
0.0
 10
-470.5785999833573
 20
-110.0125234217514
 30
0.0
  0
LINE
  5
E9
330
1F
100
AcDbEntity
  8
0
  6
Continuous
 62
     7
370
    25
100
AcDbLine
 10
-470.5785999834
 20
-110.0125234218
 30
0.0
 11
-470.5785999834
 21
-179.9761758908
 31
0.0
  0
SPLINE
  5
EA
330
1F
100
AcDbEntity
  8
0
  6
Continuous
 62
     7
370
    25
100
AcDbSpline
210
0.0
220
0.0
230
1.0
 70
     8
 71
     3
 72
     8
 73
     4
 74
     0
 42
0.000000001
 43
0.00000001
 40
0.0
 40
0.0
 40
0.0
 40
0.0
 40
1.0
 40
1.0
 40
1.0
 40
1.0
 10
-470.5785999833573
 20
-179.9761758907753
 30
0.0
 10
-470.5990134259629
 20
-179.982233823446
 30
0.0
 10
-470.6194268685495
 20
-179.988291745272
 30
0.0
 10
-470.6398393249191
 20
-179.9943496562634
 30
0.0
  0
LINE
  5
EB
330
1F
100
AcDbEntity
  8
0
  6
Continuous
 62
     7
370
    25
100
AcDbLine
 10
-470.6398393249
 20
-179.9943496563
 30
0.0
 11
-476.8085999834
 21
-179.9943496563
 31
0.0
  0
LINE
  5
EC
330
1F
100
AcDbEntity
  8
0
  6
Continuous
 62
     7
370
    25
100
AcDbLine
 10
-476.8085999834
 20
-109.9943496563
 30
0.0
 11
-476.8085999834
 21
-179.9943496563
 31
0.0
  0
SPLINE
  5
ED
330
1F
100
AcDbEntity
  8
0
  6
Continuous
 62
     7
370
    25
100
AcDbSpline
210
0.0
220
0.0
230
1.0
 70
     8
 71
     3
 72
     8
 73
     4
 74
     0
 42
0.000000001
 43
0.00000001
 40
0.0
 40
0.0
 40
0.0
 40
0.0
 40
1.0
 40
1.0
 40
1.0
 40
1.0
 10
-39.04738093191176
 20
-109.94391334554
 30
0.0
 10
-39.05272256871503
 20
-109.9619124138141
 30
0.0
 10
-39.05806419808381
 20
-109.9799121582113
 30
0.0
 10
-39.06340582002335
 20
-109.9979119026179
 30
0.0
  0
LINE
  5
EE
330
1F
100
AcDbEntity
  8
0
  6
Continuous
 62
     7
370
    25
100
AcDbLine
 10
-39.0561618805
 20
-110.0125234218
 30
0.0
 11
-39.0561618805
 21
-179.9761758908
 31
0.0
  0
LINE
  5
EF
330
1F
100
AcDbEntity
  8
0
  6
Continuous
 62
     7
370
    25
100
AcDbLine
 10
-39.0561618805
 20
-179.9761758908
 30
0.0
 11
-39.0721296693
 21
-179.9696009189
 31
0.0
  0
LINE
  5
F0
330
1F
100
AcDbEntity
  8
0
  6
Continuous
 62
     7
370
    25
100
AcDbLine
 10
-39.0721296693
 20
-179.9696009189
 30
0.0
 11
-39.06340582
 21
-179.9907874099
 31
0.0
  0
LINE
  5
F1
330
1F
100
AcDbEntity
  8
0
  6
Continuous
 62
     7
370
    25
100
AcDbLine
 10
-470.5713560438
 20
-179.9907874099
 30
0.0
 11
-470.5626321946
 21
-179.9696009189
 31
0.0
  0
LINE
  5
F2
330
1F
100
AcDbEntity
  8
0
  6
Continuous
 62
     7
370
    25
100
AcDbLine
 10
-470.5626321946
 20
-179.9696009189
 30
0.0
 11
-470.5785999834
 21
-179.9761758908
 31
0.0
  0
LINE
  5
F3
330
1F
100
AcDbEntity
  8
0
  6
Continuous
 62
     7
370
    25
100
AcDbLine
 10
-470.5785999834
 20
-110.0125234218
 30
0.0
 11
-470.5626321946
 21
-110.0190983936
 31
0.0
  0
LINE
  5
F4
330
1F
100
AcDbEntity
  8
0
  6
Continuous
 62
     7
370
    25
100
AcDbLine
 10
-470.5626321946
 20
-110.0190983936
 30
0.0
 11
-470.5713560438
 21
-109.9979119026
 31
0.0
  0
LINE
  5
F5
330
1F
100
AcDbEntity
  8
0
  6
Continuous
 62
     7
370
    25
100
AcDbLine
 10
-39.06340582
 20
-109.9979119026
 30
0.0
 11
-470.5713560438
 21
-109.9979119026
 31
0.0
  0
LINE
  5
F6
330
1F
100
AcDbEntity
  8
0
  6
Continuous
 62
     7
370
    25
100
AcDbLine
 10
-39.06340582
 20
-109.9979119026
 30
0.0
 11
-39.0721296693
 21
-110.0190983936
 31
0.0
  0
LINE
  5
F7
330
1F
100
AcDbEntity
  8
0
  6
Continuous
 62
     7
370
    25
100
AcDbLine
 10
-406.3173809319
 20
-160.2243496563
 30
0.0
 11
-451.3173809319
 21
-160.2243496563
 31
0.0
  0
ARC
  5
F8
330
1F
100
AcDbEntity
  8
0
  6
Continuous
 62
     7
370
    25
100
AcDbCircle
 10
-451.3173809319
 20
-165.7243496563
 30
0.0
 40
5.5
100
AcDbArc
 50
90.0
 51
270.0
  0
LINE
  5
F9
330
1F
100
AcDbEntity
  8
0
  6
Continuous
 62
     7
370
    25
100
AcDbLine
 10
-451.3173809319
 20
-171.2243496563
 30
0.0
 11
-406.3173809319
 21
-171.2243496563
 31
0.0
  0
ARC
  5
FA
330
1F
100
AcDbEntity
  8
0
  6
Continuous
 62
     7
370
    25
100
AcDbCircle
 10
-406.3173809319
 20
-165.7243496563
 30
0.0
 40
5.5
100
AcDbArc
 50
270.0
 51
90.0
  0
LINE
  5
FB
330
1F
100
AcDbEntity
  8
0
  6
Continuous
 62
     7
370
    25
100
AcDbLine
 10
-103.3173809319
 20
-171.2243496563
 30
0.0
 11
-58.3173809319
 21
-171.2243496563
 31
0.0
  0
ARC
  5
FC
330
1F
100
AcDbEntity
  8
0
  6
Continuous
 62
     7
370
    25
100
AcDbCircle
 10
-58.3173809319
 20
-165.7243496563
 30
0.0
 40
5.5
100
AcDbArc
 50
270.0
 51
90.0
  0
LINE
  5
FD
330
1F
100
AcDbEntity
  8
0
  6
Continuous
 62
     7
370
    25
100
AcDbLine
 10
-58.3173809319
 20
-160.2243496563
 30
0.0
 11
-103.3173809319
 21
-160.2243496563
 31
0.0
  0
ARC
  5
FE
330
1F
100
AcDbEntity
  8
0
  6
Continuous
 62
     7
370
    25
100
AcDbCircle
 10
-103.3173809319
 20
-165.7243496563
 30
0.0
 40
5.5
100
AcDbArc
 50
90.0
 51
270.0
  0
LINE
  5
FF
330
1F
100
AcDbEntity
  8
0
  6
Continuous
 62
     7
370
    25
100
AcDbLine
 10
-406.3173809319
 20
-118.7643496563
 30
0.0
 11
-451.3173809319
 21
-118.7643496563
 31
0.0
  0
ARC
  5
100
330
1F
100
AcDbEntity
  8
0
  6
Continuous
 62
     7
370
    25
100
AcDbCircle
 10
-451.3173809319
 20
-124.2643496563
 30
0.0
 40
5.500000000000014
100
AcDbArc
 50
90.0
 51
270.0
  0
LINE
  5
101
330
1F
100
AcDbEntity
  8
0
  6
Continuous
 62
     7
370
    25
100
AcDbLine
 10
-451.3173809319
 20
-129.7643496563
 30
0.0
 11
-406.3173809319
 21
-129.7643496563
 31
0.0
  0
ARC
  5
102
330
1F
100
AcDbEntity
  8
0
  6
Continuous
 62
     7
370
    25
100
AcDbCircle
 10
-406.3173809319
 20
-124.2643496563
 30
0.0
 40
5.500000000000014
100
AcDbArc
 50
270.0
 51
90.0
  0
LINE
  5
103
330
1F
100
AcDbEntity
  8
0
  6
Continuous
 62
     7
370
    25
100
AcDbLine
 10
-103.3173809319
 20
-129.7643496563
 30
0.0
 11
-58.3173809319
 21
-129.7643496563
 31
0.0
  0
ARC
  5
104
330
1F
100
AcDbEntity
  8
0
  6
Continuous
 62
     7
370
    25
100
AcDbCircle
 10
-58.3173809319
 20
-124.2643496563
 30
0.0
 40
5.500000000000014
100
AcDbArc
 50
270.0
 51
90.0
  0
LINE
  5
105
330
1F
100
AcDbEntity
  8
0
  6
Continuous
 62
     7
370
    25
100
AcDbLine
 10
-58.3173809319
 20
-118.7643496563
 30
0.0
 11
-103.3173809319
 21
-118.7643496563
 31
0.0
  0
ARC
  5
106
330
1F
100
AcDbEntity
  8
0
  6
Continuous
 62
     7
370
    25
100
AcDbCircle
 10
-103.3173809319
 20
-124.2643496563
 30
0.0
 40
5.500000000000014
100
AcDbArc
 50
90.0
 51
270.0
  0
CIRCLE
  5
107
330
1F
100
AcDbEntity
  8
0
  6
Continuous
 62
     7
370
    25
100
AcDbCircle
 10
-350.3173809319
 20
-144.9943496563
 30
0.0
 40
6.500000000000057
  0
CIRCLE
  5
108
330
1F
100
AcDbEntity
  8
0
  6
Continuous
 62
     7
370
    25
100
AcDbCircle
 10
-159.3173809319
 20
-144.9943496563
 30
0.0
 40
6.5
  0
CIRCLE
  5
109
330
1F
100
AcDbEntity
  8
0
  6
Continuous
 62
     7
370
    25
100
AcDbCircle
 10
-254.8173809319
 20
-144.9943496563
 30
0.0
 40
6.5
  0
LINE
  5
10A
330
1F
100
AcDbEntity
  8
0
  6
Continuous
 62
     7
370
    25
100
AcDbLine
 10
-39.0721296693
 20
-110.0190983936
 30
0.0
 11
-39.0561618805
 21
-110.0125234218
 31
0.0
  0
LINE
  5
10B
330
1F
100
AcDbEntity
  8
0
  6
Continuous
 62
     7
370
    25
100
AcDbLine
 10
-39.0473809319
 20
-103.7679119026
 30
0.0
 11
-39.0473809319
 21
-109.9439133455
 31
0.0
  0
SPLINE
  5
10C
330
1F
100
AcDbEntity
  8
0
  6
Continuous
 62
     7
370
    25
100
AcDbSpline
210
0.0
220
0.0
230
1.0
 70
     8
 71
     3
 72
     8
 73
     4
 74
     0
 42
0.000000001
 43
0.00000001
 40
0.0
 40
0.0
 40
0.0
 40
0.0
 40
1.0
 40
1.0
 40
1.0
 40
1.0
 10
-470.5713560438003
 20
-109.9979119026179
 30
0.0
 10
-470.5766976806032
 20
-109.9799121582101
 30
0.0
 10
-470.5820393099721
 20
-109.961912413813
 30
0.0
 10
-470.5873809319119
 20
-109.94391334554
 30
0.0
  0
LINE
  5
10D
330
1F
100
AcDbEntity
  8
0
  6
Continuous
 62
     7
370
    25
100
AcDbLine
 10
-470.5873809319
 20
-109.9439133455
 30
0.0
 11
-470.5873809319
 21
-103.7679119026
 31
0.0
  0
LINE
  5
10E
330
1F
100
AcDbEntity
  8
0
  6
Continuous
 62
     7
370
    25
100
AcDbLine
 10
-39.0473809319
 20
-103.7679119026
 30
0.0
 11
-470.5873809319
 21
-103.7679119026
 31
0.0
  0
SPLINE
  5
10F
330
1F
100
AcDbEntity
  8
0
  6
Continuous
 62
     7
370
    25
100
AcDbSpline
210
0.0
220
0.0
230
1.0
 70
     8
 71
     3
 72
     8
 73
     4
 74
     0
 42
0.000000001
 43
0.00000001
 40
0.0
 40
0.0
 40
0.0
 40
0.0
 40
1.0
 40
1.0
 40
1.0
 40
1.0
 10
-38.99492253890455
 20
-179.9943496562634
 30
0.0
 10
-39.01533499527224
 20
-179.9882917235928
 30
0.0
 10
-39.03574843785931
 20
-179.9822338017666
 30
0.0
 10
-39.05616188046637
 20
-179.9761758907753
 30
0.0
  0
SPLINE
  5
110
330
1F
100
AcDbEntity
  8
0
  6
Continuous
 62
     7
370
    25
100
AcDbSpline
210
0.0
220
0.0
230
1.0
 70
     8
 71
     3
 72
     8
 73
     4
 74
     0
 42
0.000000001
 43
0.00000001
 40
0.0
 40
0.0
 40
0.0
 40
0.0
 40
1.0
 40
1.0
 40
1.0
 40
1.0
 10
-39.05616188046637
 20
-110.0125234217514
 30
0.0
 10
-39.03574843786192
 20
-110.0064654890812
 30
0.0
 10
-39.01533499527424
 20
-110.0004075672548
 30
0.0
 10
-38.99492253890455
 20
-109.9943496562633
 30
0.0
  0
LINE
  5
111
330
1F
100
AcDbEntity
  8
0
  6
Continuous
 62
     7
370
    25
100
AcDbLine
 10
-38.9949225389
 20
-109.9943496563
 30
0.0
 11
-32.8261618805
 21
-109.9943496563
 31
0.0
  0
LINE
  5
112
330
1F
100
AcDbEntity
  8
0
  6
Continuous
 62
     7
370
    25
100
AcDbLine
 10
-32.8261618805
 20
-109.9943496563
 30
0.0
 11
-32.8261618805
 21
-179.9943496563
 31
0.0
  0
LINE
  5
113
330
1F
100
AcDbEntity
  8
0
  6
Continuous
 62
     7
370
    25
100
AcDbLine
 10
-32.8261618805
 20
-179.9943496563
 30
0.0
 11
-38.9949225389
 21
-179.9943496563
 31
0.0
  0
DIMENSION
  5
114
330
1F
100
AcDbEntity
  8
0
  6
Continuous
 62
     7
420
 16777215
370
    18
100
AcDbDimension
  2
_D_3
 10
-506.8086249834
 20
-165.7243496563
 30
0.0
 11
-506.8086249834
 21
-254.896561046
 31
0.0
 70
   160
  1
<>
 71
     2
 42
-1.0
  3
SLDDIMSTYLE0
100
AcDbAlignedDimension
 13
-451.3173809319
 23
-124.2643496563
 33
0.0
 14
-451.3173809319
 24
-165.7243496563
 34
0.0
 50
90.0
100
AcDbRotatedDimension
  0
DIMENSION
  5
126
330
1F
100
AcDbEntity
  8
0
  6
Continuous
 62
     7
420
 16777215
370
    18
100
AcDbDimension
  2
_D_4
 10
-58.3173809319
 20
-441.2208124099
 30
0.0
 11
-254.8173809319
 21
-441.2208124099
 31
0.0
 70
   160
  1
<>
 71
     2
 42
-1.0
  3
SLDDIMSTYLE0
100
AcDbAlignedDimension
 13
-451.3173809319
 23
-165.7243496563
 33
0.0
 14
-58.3173809319
 24
-165.7243496563
 34
0.0
100
AcDbRotatedDimension
  0
DIMENSION
  5
137
330
1F
100
AcDbEntity
  8
0
  6
Continuous
 62
     7
420
 16777215
370
    18
100
AcDbDimension
  2
_D_5
 10
-259.5293291502
 20
-140.5169012771
 30
0.0
 11
-371.8432225778
 21
-44.7485705221
 31
0.0
 70
   163
  1
<>
 71
     1
 42
-1.0
  3
SLDDIMSTYLE1
100
AcDbDiametricDimension
 15
-250.1054327136
 25
-149.4717980354
 35
0.0
 40
0.0
  0
DIMENSION
  5
14B
330
1F
100
AcDbEntity
  8
0
  6
Continuous
 62
     7
420
 16777215
370
    18
100
AcDbDimension
  2
_D_6
 10
-159.3173809319
 20
-266.2208124099
 30
0.0
 11
-254.8173809319
 21
-266.2208124099
 31
0.0
 70
   160
  1
<>
 71
     2
 42
-1.0
  3
SLDDIMSTYLE0
100
AcDbAlignedDimension
 13
-350.3173809319
 23
-153.9943496563
 33
0.0
 14
-159.3173809319
 24
-153.9943496563
 34
0.0
100
AcDbRotatedDimension
  0
DIMENSION
  5
15C
330
1F
100
AcDbEntity
  8
0
  6
Continuous
 62
     7
420
 16777215
370
    18
100
AcDbDimension
  2
_D_7
 10
-103.3173809319
 20
-353.7771893384
 30
0.0
 11
-254.8173809319
 21
-353.7771893384
 31
0.0
 70
   160
  1
<>
 71
     2
 42
-1.0
  3
SLDDIMSTYLE0
100
AcDbAlignedDimension
 13
-406.3173809319
 23
-165.7243496563
 33
0.0
 14
-103.3173809319
 24
-165.7243496563
 34
0.0
100
AcDbRotatedDimension
  0
DIMENSION
  5
16D
330
1F
100
AcDbEntity
  8
0
  6
Continuous
 62
     7
420
 16777215
370
    18
100
AcDbDimension
  2
_D_8
 10
-103.3173809319
 20
-124.2643496563
 30
0.0
 11
-199.6725919924
 21
-31.6224190676
 31
0.0
 70
   164
  1
<>
 71
     1
 42
-1.0
  3
SLDDIMSTYLE2
100
AcDbRadialDimension
 15
-107.1937441239
 25
-120.3625797497
 35
0.0
 40
0.0
  0
INSERT
  5
189
330
1F
100
AcDbEntity
  8
0
  6
Continuous
 62
     7
420
 16777215
370
    18
100
AcDbBlockReference
  2
SW_CENTERMARKSYMBOL_0
 10
-254.8173809319
 20
-144.9943496563
 30
0.0
  0
INSERT
  5
195
330
1F
100
AcDbEntity
  8
0
  6
Continuous
 62
     7
420
 16777215
370
    18
100
AcDbBlockReference
  2
SW_CENTERMARKSYMBOL_1
 10
-159.3173809319
 20
-144.9943496563
 30
0.0
  0
INSERT
  5
1A1
330
1F
100
AcDbEntity
  8
0
  6
Continuous
 62
     7
420
 16777215
370
    18
100
AcDbBlockReference
  2
SW_CENTERMARKSYMBOL_2
 10
-350.3173809319
 20
-144.9943496563
 30
0.0
  0
LINE
  5
1A2
330
1F
100
AcDbEntity
  8
0
  6
Continuous
 62
     7
370
    25
100
AcDbLine
 10
121.4487806019
 20
412.8781330201
 30
0.0
 11
121.4487806019
 21
419.1078320291
 31
0.0
  0
SPLINE
  5
1A3
330
1F
100
AcDbEntity
  8
0
  6
Continuous
 62
     7
370
    25
100
AcDbSpline
210
0.0
220
0.0
230
1.0
 70
     8
 71
     3
 72
     8
 73
     4
 74
     0
 42
0.000000001
 43
0.00000001
 40
0.0
 40
0.0
 40
0.0
 40
0.0
 40
1.0
 40
1.0
 40
1.0
 40
1.0
 10
121.4487806019178
 20
419.1078320291372
 30
0.0
 10
121.4548385345888
 20
419.1080326881715
 30
0.0
 10
121.460896456415
 20
419.1081330201123
 30
0.0
 10
121.4669543674058
 20
419.1081330201123
 30
0.0
  0
LINE
  5
1A4
330
1F
100
AcDbEntity
  8
0
  6
Continuous
 62
     7
370
    25
100
AcDbLine
 10
121.4669543674
 20
419.1081330201
 30
0.0
 11
191.4306068364
 21
419.1081330201
 31
0.0
  0
SPLINE
  5
1A5
330
1F
100
AcDbEntity
  8
0
  6
Continuous
 62
     7
370
    25
100
AcDbSpline
210
0.0
220
0.0
230
1.0
 70
     8
 71
     3
 72
     8
 73
     4
 74
     0
 42
0.000000001
 43
0.00000001
 40
0.0
 40
0.0
 40
0.0
 40
0.0
 40
1.0
 40
1.0
 40
1.0
 40
1.0
 10
191.4306068364298
 20
419.1081330201123
 30
0.0
 10
191.4366647691004
 20
419.1081330201123
 30
0.0
 10
191.4427226909264
 20
419.1080326881715
 30
0.0
 10
191.4487806019178
 20
419.1078320291372
 30
0.0
  0
LINE
  5
1A6
330
1F
100
AcDbEntity
  8
0
  6
Continuous
 62
     7
370
    25
100
AcDbLine
 10
191.4487806019
 20
419.1078320291
 30
0.0
 11
191.4487806019
 21
412.8781330201
 31
0.0
  0
LINE
  5
1A7
330
1F
100
AcDbEntity
  8
0
  6
Continuous
 62
     7
370
    25
100
AcDbLine
 10
121.4487806019
 20
412.8781330201
 30
0.0
 11
191.4487806019
 21
412.8781330201
 31
0.0
  0
LINE
  5
1A8
330
1F
100
AcDbEntity
  8
0
  6
Continuous
 62
     7
370
    25
100
AcDbLine
 10
191.4487806019
 20
257.1990395376
 30
0.0
 11
191.4487806019
 21
412.8781330201
 31
0.0
  0
LINE
  5
1A9
330
1F
100
AcDbEntity
  8
0
  6
Continuous
 62
     7
370
    25
100
AcDbLine
 10
121.4487806019
 20
257.1990395376
 30
0.0
 11
191.4487806019
 21
257.1990395376
 31
0.0
  0
LINE
  5
1AA
330
1F
100
AcDbEntity
  8
0
  6
Continuous
 62
     7
370
    25
100
AcDbLine
 10
121.4487806019
 20
412.8781330201
 30
0.0
 11
121.4487806019
 21
257.1990395376
 31
0.0
  0
LINE
  5
1AB
330
1F
100
AcDbEntity
  8
0
  6
Continuous
 62
     7
370
    25
100
AcDbLine
 10
121.4487806019
 20
250.3966723025
 30
0.0
 11
191.4487806019
 21
250.3966723025
 31
0.0
  0
LINE
  5
1AC
330
1F
100
AcDbEntity
  8
0
  6
Continuous
 62
     7
370
    25
100
AcDbLine
 10
121.4487806019
 20
250.3966723025
 30
0.0
 11
121.4487806019
 21
257.1990395376
 31
0.0
  0
LINE
  5
1AD
330
1F
100
AcDbEntity
  8
0
  6
Continuous
 62
     7
370
    25
100
AcDbLine
 10
191.4487806019
 20
257.1990395376
 30
0.0
 11
191.4487806019
 21
250.3966723025
 31
0.0
  0
LINE
  5
1AE
330
1F
100
AcDbEntity
  8
0
  6
Continuous
 62
     7
370
    25
100
AcDbLine
 10
191.4487806019
 20
243.1763607852
 30
0.0
 11
191.4487806019
 21
250.3966723025
 31
0.0
  0
LINE
  5
1AF
330
1F
100
AcDbEntity
  8
0
  6
Continuous
 62
     7
370
    25
100
AcDbLine
 10
191.4487806019
 20
243.1763607852
 30
0.0
 11
121.4487806019
 21
243.1763607852
 31
0.0
  0
LINE
  5
1B0
330
1F
100
AcDbEntity
  8
0
  6
Continuous
 62
     7
370
    25
100
AcDbLine
 10
121.4487806019
 20
250.3966723025
 30
0.0
 11
121.4487806019
 21
243.1763607852
 31
0.0
  0
LINE
  5
1B1
330
1F
100
AcDbEntity
  8
0
  6
Continuous
 62
     7
370
    25
100
AcDbLine
 10
115.2223428483
 20
412.8781330201
 30
0.0
 11
118.2223428483
 21
412.8781330201
 31
0.0
  0
ARC
  5
1B2
330
1F
100
AcDbEntity
  8
0
  6
Continuous
 62
     7
370
    25
100
AcDbCircle
 10
121.4523428483
 20
412.8781330201
 30
0.0
 40
6.230000000000017
100
AcDbArc
 50
90.4966176822
 51
180.0
  0
LINE
  5
1B3
330
1F
100
AcDbEntity
  8
0
  6
Continuous
 62
     7
370
    25
100
AcDbLine
 10
121.3983442912
 20
419.1078989993
 30
0.0
 11
121.4243468066
 21
416.1080116899
 31
0.0
  0
ARC
  5
1B4
330
1F
100
AcDbEntity
  8
0
  6
Continuous
 62
     7
370
    25
100
AcDbCircle
 10
121.4523428483
 20
412.8781330201
 30
0.0
 40
3.230000000000018
100
AcDbArc
 50
90.4966176822
 51
180.0
  0
SPLINE
  5
1B5
330
1F
100
AcDbEntity
  8
0
  6
Continuous
 62
     7
370
    25
100
AcDbSpline
210
0.0
220
0.0
230
1.0
 70
     8
 71
     3
 72
     8
 73
     4
 74
     0
 42
0.000000001
 43
0.00000001
 40
0.0
 40
0.0
 40
0.0
 40
0.0
 40
1.0
 40
1.0
 40
1.0
 40
1.0
 10
121.4523428482723
 20
419.1081330201123
 30
0.0
 10
121.4343431038645
 20
419.1081330201123
 30
0.0
 10
121.4163433594673
 20
419.1080550122085
 30
0.0
 10
121.3983442911944
 20
419.1078989993312
 30
0.0
  0
SPLINE
  5
1B6
330
1F
100
AcDbEntity
  8
0
  6
Continuous
 62
     7
370
    25
100
AcDbSpline
210
0.0
220
0.0
230
1.0
 70
     8
 71
     3
 72
     8
 73
     4
 74
     0
 42
0.000000001
 43
0.00000001
 40
0.0
 40
0.0
 40
0.0
 40
0.0
 40
1.0
 40
1.0
 40
1.0
 40
1.0
 10
191.4992169126411
 20
419.1078989993312
 30
0.0
 10
191.4812178443694
 20
419.1080550122085
 30
0.0
 10
191.4632180999724
 20
419.1081330201123
 30
0.0
 10
191.4452183555632
 20
419.1081330201123
 30
0.0
  0
LINE
  5
1B7
330
1F
100
AcDbEntity
  8
0
  6
Continuous
 62
     7
370
    25
100
AcDbLine
 10
191.4992169126
 20
419.1078989993
 30
0.0
 11
191.4732143972
 21
416.1080116899
 31
0.0
  0
LINE
  5
1B8
330
1F
100
AcDbEntity
  8
0
  6
Continuous
 62
     7
370
    25
100
AcDbLine
 10
197.6752183556
 20
412.8781330201
 30
0.0
 11
194.6752183556
 21
412.8781330201
 31
0.0
  0
ARC
  5
1B9
330
1F
100
AcDbEntity
  8
0
  6
Continuous
 62
     7
370
    25
100
AcDbCircle
 10
191.4452183556
 20
412.8781330201
 30
0.0
 40
3.22999999999999
100
AcDbArc
 50
0.0
 51
89.5033823178
  0
ARC
  5
1BA
330
1F
100
AcDbEntity
  8
0
  6
Continuous
 62
     7
370
    25
100
AcDbCircle
 10
191.4452183556
 20
412.8781330201
 30
0.0
 40
6.230000000000017
100
AcDbArc
 50
0.0
 51
89.5033823178
  0
LINE
  5
1BB
330
1F
100
AcDbEntity
  8
0
  6
Continuous
 62
     7
370
    25
100
AcDbLine
 10
118.2223428483
 20
407.1045707738
 30
0.0
 11
118.2223428483
 21
412.8781330201
 31
0.0
  0
LINE
  5
1BC
330
1F
100
AcDbEntity
  8
0
  6
Continuous
 62
     7
370
    25
100
AcDbLine
 10
118.2223428483
 20
407.1045707738
 30
0.0
 11
115.2223428483
 21
407.1045707738
 31
0.0
  0
LINE
  5
1BD
330
1F
100
AcDbEntity
  8
0
  6
Continuous
 62
     7
370
    25
100
AcDbLine
 10
115.2223428483
 20
407.1045707738
 30
0.0
 11
115.2223428483
 21
412.8781330201
 31
0.0
  0
LINE
  5
1BE
330
1F
100
AcDbEntity
  8
0
  6
Continuous
 62
     7
370
    25
100
AcDbLine
 10
118.2223428483
 20
404.1045707738
 30
0.0
 11
115.2223428483
 21
404.1045707738
 31
0.0
  0
LINE
  5
1BF
330
1F
100
AcDbEntity
  8
0
  6
Continuous
 62
     7
370
    25
100
AcDbLine
 10
115.2223428483
 20
404.1045707738
 30
0.0
 11
115.2223428483
 21
407.1045707738
 31
0.0
  0
LINE
  5
1C0
330
1F
100
AcDbEntity
  8
0
  6
Continuous
 62
     7
370
    25
100
AcDbLine
 10
118.2223428483
 20
404.1045707738
 30
0.0
 11
118.2223428483
 21
407.1045707738
 31
0.0
  0
LINE
  5
1C1
330
1F
100
AcDbEntity
  8
0
  6
Continuous
 62
     7
370
    25
100
AcDbLine
 10
194.6752183556
 20
407.1045707738
 30
0.0
 11
197.6752183556
 21
407.1045707738
 31
0.0
  0
LINE
  5
1C2
330
1F
100
AcDbEntity
  8
0
  6
Continuous
 62
     7
370
    25
100
AcDbLine
 10
197.6752183556
 20
412.8781330201
 30
0.0
 11
197.6752183556
 21
407.1045707738
 31
0.0
  0
LINE
  5
1C3
330
1F
100
AcDbEntity
  8
0
  6
Continuous
 62
     7
370
    25
100
AcDbLine
 10
194.6752183556
 20
412.8781330201
 30
0.0
 11
194.6752183556
 21
407.1045707738
 31
0.0
  0
LINE
  5
1C4
330
1F
100
AcDbEntity
  8
0
  6
Continuous
 62
     7
370
    25
100
AcDbLine
 10
194.6752183556
 20
404.1045707738
 30
0.0
 11
197.6752183556
 21
404.1045707738
 31
0.0
  0
LINE
  5
1C5
330
1F
100
AcDbEntity
  8
0
  6
Continuous
 62
     7
370
    25
100
AcDbLine
 10
197.6752183556
 20
407.1045707738
 30
0.0
 11
197.6752183556
 21
404.1045707738
 31
0.0
  0
LINE
  5
1C6
330
1F
100
AcDbEntity
  8
0
  6
Continuous
 62
     7
370
    25
100
AcDbLine
 10
194.6752183556
 20
407.1045707738
 30
0.0
 11
194.6752183556
 21
404.1045707738
 31
0.0
  0
LINE
  5
1C7
330
1F
100
AcDbEntity
  8
0
  6
Continuous
 62
     7
370
    25
100
AcDbLine
 10
121.4669543674
 20
419.1081330201
 30
0.0
 11
121.4523428483
 21
419.1081330201
 31
0.0
  0
LINE
  5
1C8
330
1F
100
AcDbEntity
  8
0
  6
Continuous
 62
     7
370
    25
100
AcDbLine
 10
191.4452183556
 20
419.1081330201
 30
0.0
 11
191.4306068364
 21
419.1081330201
 31
0.0
  0
LINE
  5
1C9
330
1F
100
AcDbEntity
  8
0
  6
Continuous
 62
     7
370
    25
100
AcDbLine
 10
191.4487806019
 20
243.1763607852
 30
0.0
 11
191.4487806019
 21
238.4953138937
 31
0.0
  0
LINE
  5
1CA
330
1F
100
AcDbEntity
  8
0
  6
Continuous
 62
     7
370
    25
100
AcDbLine
 10
191.4487806019
 20
238.4953138937
 30
0.0
 11
121.4487806019
 21
238.4953138937
 31
0.0
  0
LINE
  5
1CB
330
1F
100
AcDbEntity
  8
0
  6
Continuous
 62
     7
370
    25
100
AcDbLine
 10
121.4487806019
 20
238.4953138937
 30
0.0
 11
121.4487806019
 21
243.1763607852
 31
0.0
  0
CIRCLE
  5
1CC
330
1F
100
AcDbEntity
  8
0
  6
Continuous
 62
     7
370
    25
100
AcDbCircle
 10
156.4487806019
 20
56.0897826575
 30
0.0
 40
5.249999999999758
  0
ARC
  5
1CD
330
1F
100
AcDbEntity
  8
0
  6
Continuous
 62
     7
370
    25
100
AcDbCircle
 10
156.448780602
 20
134.0897826575
 30
0.0
 40
5.250000000000147
100
AcDbArc
 50
324.2150958564
 51
206.8806191316
  0
ARC
  5
1CE
330
1F
100
AcDbEntity
  8
0
  6
Continuous
 62
     7
370
    25
100
AcDbCircle
 10
148.2358081206
 20
129.0897826575
 30
0.0
 40
4.399999999996861
100
AcDbArc
 50
323.3527498139
 51
36.6472501851
  0
ARC
  5
1CF
330
1F
100
AcDbEntity
  8
0
  6
Continuous
 62
     7
370
    25
100
AcDbCircle
 10
156.4487806019
 20
124.0897826575
 30
0.0
 40
5.249999999999273
100
AcDbArc
 50
153.1193808679
 51
215.7849041431
  0
ARC
  5
1D0
330
1F
100
AcDbEntity
  8
0
  6
Continuous
 62
     7
370
    25
100
AcDbCircle
 10
148.2358081205
 20
119.0897826575
 30
0.0
 40
4.400000000000247
100
AcDbArc
 50
323.3527498151
 51
26.0182730903
  0
ARC
  5
1D1
330
1F
100
AcDbEntity
  8
0
  6
Continuous
 62
     7
370
    25
100
AcDbCircle
 10
156.4487806019
 20
114.0897826575
 30
0.0
 40
5.249999999999543
100
AcDbArc
 50
153.1193808679
 51
215.7849041431
  0
ARC
  5
1D2
330
1F
100
AcDbEntity
  8
0
  6
Continuous
 62
     7
370
    25
100
AcDbCircle
 10
148.2358081205
 20
109.0897826575
 30
0.0
 40
4.400000000000145
100
AcDbArc
 50
323.3527498151
 51
26.0182730903
  0
ARC
  5
1D3
330
1F
100
AcDbEntity
  8
0
  6
Continuous
 62
     7
370
    25
100
AcDbCircle
 10
156.4487806019
 20
104.0897826575
 30
0.0
 40
5.249999999999621
100
AcDbArc
 50
153.119380869
 51
206.8806191322
  0
ARC
  5
1D4
330
1F
100
AcDbEntity
  8
0
  6
Continuous
 62
     7
370
    25
100
AcDbCircle
 10
148.2358081206
 20
99.0897826575
 30
0.0
 40
4.39999999999986
100
AcDbArc
 50
323.3527498139
 51
36.647250185
  0
ARC
  5
1D5
330
1F
100
AcDbEntity
  8
0
  6
Continuous
 62
     7
370
    25
100
AcDbCircle
 10
156.4487806019
 20
94.0897826575
 30
0.0
 40
5.249999999999647
100
AcDbArc
 50
153.119380869
 51
206.8806191322
  0
ARC
  5
1D6
330
1F
100
AcDbEntity
  8
0
  6
Continuous
 62
     7
370
    25
100
AcDbCircle
 10
148.2358081206
 20
89.0897826575
 30
0.0
 40
4.399999999999951
100
AcDbArc
 50
323.3527498139
 51
36.647250185
  0
ARC
  5
1D7
330
1F
100
AcDbEntity
  8
0
  6
Continuous
 62
     7
370
    25
100
AcDbCircle
 10
156.4487806019
 20
84.0897826575
 30
0.0
 40
5.249999999999941
100
AcDbArc
 50
153.1193808689
 51
26.8806191311
  0
ARC
  5
1D8
330
1F
100
AcDbEntity
  8
0
  6
Continuous
 62
     7
370
    25
100
AcDbCircle
 10
164.6617530833
 20
89.0897826575
 30
0.0
 40
4.40000000000236
100
AcDbArc
 50
143.3527498149
 51
216.647250186
  0
ARC
  5
1D9
330
1F
100
AcDbEntity
  8
0
  6
Continuous
 62
     7
370
    25
100
AcDbCircle
 10
156.4487806019
 20
94.0897826575
 30
0.0
 40
5.250000000000803
100
AcDbArc
 50
333.1193808678
 51
26.8806191311
  0
ARC
  5
1DA
330
1F
100
AcDbEntity
  8
0
  6
Continuous
 62
     7
370
    25
100
AcDbCircle
 10
164.6617530833
 20
99.0897826575
 30
0.0
 40
4.400000000000094
100
AcDbArc
 50
143.3527498149
 51
216.647250186
  0
ARC
  5
1DB
330
1F
100
AcDbEntity
  8
0
  6
Continuous
 62
     7
370
    25
100
AcDbCircle
 10
156.4487806019
 20
104.0897826575
 30
0.0
 40
5.250000000000377
100
AcDbArc
 50
333.1193808678
 51
26.8806191311
  0
ARC
  5
1DC
330
1F
100
AcDbEntity
  8
0
  6
Continuous
 62
     7
370
    25
100
AcDbCircle
 10
164.6617530833
 20
109.0897826575
 30
0.0
 40
4.400000000000061
100
AcDbArc
 50
153.9817269108
 51
216.6472501861
  0
ARC
  5
1DD
330
1F
100
AcDbEntity
  8
0
  6
Continuous
 62
     7
370
    25
100
AcDbCircle
 10
156.4487806019
 20
114.0897826575
 30
0.0
 40
5.250000000035627
100
AcDbArc
 50
324.2150958569
 51
26.8806191317
  0
ARC
  5
1DE
330
1F
100
AcDbEntity
  8
0
  6
Continuous
 62
     7
370
    25
100
AcDbCircle
 10
164.6617530833
 20
119.0897826575
 30
0.0
 40
4.400000000042025
100
AcDbArc
 50
153.9817269108
 51
216.647250186
  0
ARC
  5
1DF
330
1F
100
AcDbEntity
  8
0
  6
Continuous
 62
     7
370
    25
100
AcDbCircle
 10
156.4487806019
 20
124.0897826575
 30
0.0
 40
5.250000000036282
100
AcDbArc
 50
324.2150958569
 51
26.8806191317
  0
ARC
  5
1E0
330
1F
100
AcDbEntity
  8
0
  6
Continuous
 62
     7
370
    25
100
AcDbCircle
 10
164.6617530833
 20
129.0897826575
 30
0.0
 40
4.400000000041446
100
AcDbArc
 50
153.9817269103
 51
216.6472501854
  0
ARC
  5
1E1
330
1F
100
AcDbEntity
  8
0
  6
Continuous
 62
     7
370
    25
100
AcDbCircle
 10
156.448780602
 20
209.0897826575
 30
0.0
 40
5.250000000000217
100
AcDbArc
 50
324.2150958564
 51
206.8806191316
  0
ARC
  5
1E2
330
1F
100
AcDbEntity
  8
0
  6
Continuous
 62
     7
370
    25
100
AcDbCircle
 10
148.2358081206
 20
204.0897826575
 30
0.0
 40
4.399999999997013
100
AcDbArc
 50
323.3527498139
 51
36.6472501851
  0
ARC
  5
1E3
330
1F
100
AcDbEntity
  8
0
  6
Continuous
 62
     7
370
    25
100
AcDbCircle
 10
156.4487806019
 20
199.0897826575
 30
0.0
 40
5.249999999998856
100
AcDbArc
 50
153.1193808679
 51
215.7849041431
  0
ARC
  5
1E4
330
1F
100
AcDbEntity
  8
0
  6
Continuous
 62
     7
370
    25
100
AcDbCircle
 10
148.2358081205
 20
194.0897826575
 30
0.0
 40
4.40000000000026
100
AcDbArc
 50
323.3527498151
 51
26.0182730903
  0
ARC
  5
1E5
330
1F
100
AcDbEntity
  8
0
  6
Continuous
 62
     7
370
    25
100
AcDbCircle
 10
156.4487806019
 20
189.0897826575
 30
0.0
 40
5.249999999998715
100
AcDbArc
 50
153.1193808679
 51
215.7849041431
  0
ARC
  5
1E6
330
1F
100
AcDbEntity
  8
0
  6
Continuous
 62
     7
370
    25
100
AcDbCircle
 10
148.2358081205
 20
184.0897826575
 30
0.0
 40
4.400000000000422
100
AcDbArc
 50
323.3527498151
 51
26.0182730903
  0
ARC
  5
1E7
330
1F
100
AcDbEntity
  8
0
  6
Continuous
 62
     7
370
    25
100
AcDbCircle
 10
156.4487806019
 20
179.0897826574
 30
0.0
 40
5.249999999998816
100
AcDbArc
 50
153.1193808678
 51
206.8806191311
  0
ARC
  5
1E8
330
1F
100
AcDbEntity
  8
0
  6
Continuous
 62
     7
370
    25
100
AcDbCircle
 10
148.2358081205
 20
174.0897826575
 30
0.0
 40
4.399999999999991
100
AcDbArc
 50
323.352749815
 51
36.647250186
  0
ARC
  5
1E9
330
1F
100
AcDbEntity
  8
0
  6
Continuous
 62
     7
370
    25
100
AcDbCircle
 10
156.4487806019
 20
169.0897826574
 30
0.0
 40
5.249999999999089
100
AcDbArc
 50
153.1193808678
 51
206.880619131
  0
ARC
  5
1EA
330
1F
100
AcDbEntity
  8
0
  6
Continuous
 62
     7
370
    25
100
AcDbCircle
 10
148.2358081205
 20
164.0897826575
 30
0.0
 40
4.400000000000195
100
AcDbArc
 50
323.352749815
 51
36.6472501861
  0
ARC
  5
1EB
330
1F
100
AcDbEntity
  8
0
  6
Continuous
 62
     7
370
    25
100
AcDbCircle
 10
156.4487806019
 20
159.0897826575
 30
0.0
 40
5.249999999999791
100
AcDbArc
 50
153.1193808689
 51
26.8806191311
  0
ARC
  5
1EC
330
1F
100
AcDbEntity
  8
0
  6
Continuous
 62
     7
370
    25
100
AcDbCircle
 10
164.6617530833
 20
164.0897826575
 30
0.0
 40
4.40000000000236
100
AcDbArc
 50
143.3527498149
 51
216.647250186
  0
ARC
  5
1ED
330
1F
100
AcDbEntity
  8
0
  6
Continuous
 62
     7
370
    25
100
AcDbCircle
 10
156.4487806019
 20
169.0897826574
 30
0.0
 40
5.25000000004395
100
AcDbArc
 50
333.119380869
 51
26.8806191318
  0
ARC
  5
1EE
330
1F
100
AcDbEntity
  8
0
  6
Continuous
 62
     7
370
    25
100
AcDbCircle
 10
164.6617530833
 20
174.0897826575
 30
0.0
 40
4.400000000042144
100
AcDbArc
 50
143.3527498149
 51
216.6472501859
  0
ARC
  5
1EF
330
1F
100
AcDbEntity
  8
0
  6
Continuous
 62
     7
370
    25
100
AcDbCircle
 10
156.4487806019
 20
179.0897826574
 30
0.0
 40
5.250000000043399
100
AcDbArc
 50
333.119380869
 51
26.8806191318
  0
ARC
  5
1F0
330
1F
100
AcDbEntity
  8
0
  6
Continuous
 62
     7
370
    25
100
AcDbCircle
 10
164.6617530833
 20
184.0897826575
 30
0.0
 40
4.400000000041899
100
AcDbArc
 50
153.9817269108
 51
216.647250186
  0
ARC
  5
1F1
330
1F
100
AcDbEntity
  8
0
  6
Continuous
 62
     7
370
    25
100
AcDbCircle
 10
156.4487806019
 20
189.0897826575
 30
0.0
 40
5.250000000036252
100
AcDbArc
 50
324.2150958569
 51
26.8806191317
  0
ARC
  5
1F2
330
1F
100
AcDbEntity
  8
0
  6
Continuous
 62
     7
370
    25
100
AcDbCircle
 10
164.6617530833
 20
194.0897826575
 30
0.0
 40
4.40000000004182
100
AcDbArc
 50
153.9817269108
 51
216.647250186
  0
ARC
  5
1F3
330
1F
100
AcDbEntity
  8
0
  6
Continuous
 62
     7
370
    25
100
AcDbCircle
 10
156.4487806019
 20
199.0897826575
 30
0.0
 40
5.25000000003638
100
AcDbArc
 50
324.2150958569
 51
26.8806191317
  0
ARC
  5
1F4
330
1F
100
AcDbEntity
  8
0
  6
Continuous
 62
     7
370
    25
100
AcDbCircle
 10
164.6617530833
 20
204.0897826575
 30
0.0
 40
4.400000000041759
100
AcDbArc
 50
153.9817269103
 51
216.6472501854
  0
LINE
  5
1F5
330
1F
100
AcDbEntity
  8
0
  6
Continuous
 62
     7
370
    25
100
AcDbLine
 10
191.4487806019
 20
31.0897826575
 30
0.0
 11
191.4487806019
 21
238.4953138937
 31
0.0
  0
ARC
  5
1F6
330
1F
100
AcDbEntity
  8
0
  6
Continuous
 62
     7
370
    25
100
AcDbCircle
 10
181.4487806019
 20
31.0897826575
 30
0.0
 40
9.999999999999972
100
AcDbArc
 50
270.0
 51
0.0
  0
LINE
  5
1F7
330
1F
100
AcDbEntity
  8
0
  6
Continuous
 62
     7
370
    25
100
AcDbLine
 10
131.4487806019
 20
21.0897826575
 30
0.0
 11
181.4487806019
 21
21.0897826575
 31
0.0
  0
ARC
  5
1F8
330
1F
100
AcDbEntity
  8
0
  6
Continuous
 62
     7
370
    25
100
AcDbCircle
 10
131.4487806019
 20
31.0897826575
 30
0.0
 40
9.999999999999986
100
AcDbArc
 50
180.0
 51
270.0
  0
LINE
  5
1F9
330
1F
100
AcDbEntity
  8
0
  6
Continuous
 62
     7
370
    25
100
AcDbLine
 10
121.4487806019
 20
238.4953138937
 30
0.0
 11
121.4487806019
 21
31.0897826575
 31
0.0
  0
DIMENSION
  5
1FA
330
1F
100
AcDbEntity
  8
0
  6
Continuous
 62
     7
420
 16777215
370
    18
100
AcDbDimension
  2
_D_9
 10
197.6752183556
 20
449.1156580201
 30
0.0
 11
51.3228423686
 21
449.1156580201
 31
0.0
 70
   160
  1
<>
 71
     2
 42
-1.0
  3
SLDDIMSTYLE0
100
AcDbAlignedDimension
 13
115.2223428483
 23
412.8781330201
 33
0.0
 14
197.6752183556
 24
412.8781330201
 34
0.0
 50
0.0
100
AcDbRotatedDimension
  0
DIMENSION
  5
20C
330
1F
100
AcDbEntity
  8
0
  6
Continuous
 62
     7
420
 16777215
370
    18
100
AcDbDimension
  2
_D_10
 10
191.4487806019
 20
316.3291268754
 30
0.0
 11
56.4487806019
 21
316.3291268754
 31
0.0
 70
   160
  1
<>
 71
     2
 42
-1.0
  3
SLDDIMSTYLE0
100
AcDbAlignedDimension
 13
121.4487806019
 23
245.2976811287
 33
0.0
 14
191.4487806019
 24
245.2976811287
 34
0.0
100
AcDbRotatedDimension
  0
DIMENSION
  5
21E
330
1F
100
AcDbEntity
  8
0
  6
Continuous
 62
     7
420
 16777215
370
    18
100
AcDbDimension
  2
_D_11
 10
115.655270491
 20
56.0897826575
 30
0.0
 11
115.655270491
 21
111.1706149316
 31
0.0
 70
   160
  1
<>
 71
     2
 42
-1.0
  3
SLDDIMSTYLE0
100
AcDbAlignedDimension
 13
131.4487806019
 23
21.0897826575
 33
0.0
 14
148.6987806019
 24
56.0897826575
 34
0.0
 50
90.0
100
AcDbRotatedDimension
  0
DIMENSION
  5
230
330
1F
100
AcDbEntity
  8
0
  6
Continuous
 62
     7
420
 16777215
370
    18
100
AcDbDimension
  2
_D_12
 10
277.6752433556
 20
84.0897826575
 30
0.0
 11
277.6752433556
 21
-83.9102173425
 31
0.0
 70
   160
  1
<>
 71
     2
 42
-1.0
  3
SLDDIMSTYLE0
100
AcDbAlignedDimension
 13
181.4487806019
 23
21.0897826575
 33
0.0
 14
156.4487806019
 24
84.0897826575
 34
0.0
 50
90.0
100
AcDbRotatedDimension
  0
DIMENSION
  5
242
330
1F
100
AcDbEntity
  8
0
  6
Continuous
 62
     7
420
 16777215
370
    18
100
AcDbDimension
  2
_D_13
 10
327.6752433556
 20
134.0897826575
 30
0.0
 11
327.6752433556
 21
77.5897826575
 31
0.0
 70
   160
  1
<>
 71
     2
 42
-1.0
  3
SLDDIMSTYLE0
100
AcDbAlignedDimension
 13
181.4487806019
 23
21.0897826575
 33
0.0
 14
156.448780602
 24
134.0897826575
 34
0.0
 50
90.0
100
AcDbRotatedDimension
  0
DIMENSION
  5
253
330
1F
100
AcDbEntity
  8
0
  6
Continuous
 62
     7
420
 16777215
370
    18
100
AcDbDimension
  2
_D_14
 10
46.8433445563
 20
159.0897826575
 30
0.0
 11
46.8433445563
 21
90.0897826575
 31
0.0
 70
   160
  1
<>
 71
     2
 42
-1.0
  3
SLDDIMSTYLE0
100
AcDbAlignedDimension
 13
131.4487806019
 23
21.0897826575
 33
0.0
 14
156.4487806019
 24
159.0897826575
 34
0.0
 50
90.0
100
AcDbRotatedDimension
  0
DIMENSION
  5
264
330
1F
100
AcDbEntity
  8
0
  6
Continuous
 62
     7
420
 16777215
370
    18
100
AcDbDimension
  2
_D_15
 10
402.6752433556
 20
209.0897826575
 30
0.0
 11
402.6752433556
 21
262.1899272045
 31
0.0
 70
   160
  1
<>
 71
     2
 42
-1.0
  3
SLDDIMSTYLE0
100
AcDbAlignedDimension
 13
181.4487806019
 23
21.0897826575
 33
0.0
 14
156.448780602
 24
209.0897826575
 34
0.0
 50
90.0
100
AcDbRotatedDimension
  0
DIMENSION
  5
276
330
1F
100
AcDbEntity
  8
0
  6
Continuous
 62
     7
420
 16777215
370
    18
100
AcDbDimension
  2
_D_16
 10
153.284700796
 20
51.9003794802
 30
0.0
 11
46.8433445563
 21
-65.0464054864
 31
0.0
 70
   163
  1
<>
 71
     1
 42
-1.0
  3
SLDDIMSTYLE1
100
AcDbDiametricDimension
 15
159.6128604078
 25
60.2791858348
 35
0.0
 40
0.0
  0
DIMENSION
  5
289
330
1F
100
AcDbEntity
  8
0
  6
Continuous
 62
     7
420
 16777215
370
    18
100
AcDbDimension
  2
_D_17
 10
156.448780602
 20
209.0897826575
 30
0.0
 11
251.1163932562
 21
316.3291268754
 31
0.0
 70
   164
  1
<>
 71
     1
 42
-1.0
  3
SLDDIMSTYLE2
100
AcDbRadialDimension
 15
159.8179480979
 25
213.1160973973
 35
0.0
 40
0.0
  0
INSERT
  5
2A4
330
1F
100
AcDbEntity
  8
0
  6
Continuous
 62
     7
420
 16777215
370
    18
100
AcDbBlockReference
  2
SW_CENTERMARKSYMBOL_3
 10
156.4487806019
 20
56.0897826575
 30
0.0
  0
LINE
  5
2A5
330
1F
100
AcDbEntity
  8
0
  6
Continuous
 62
     7
370
    25
100
AcDbLine
 10
622.266175825
 20
-260.9879727305
 30
0.0
 11
624.3874961686
 21
-259.7633605628
 31
0.0
  0
LINE
  5
2A6
330
1F
100
AcDbEntity
  8
0
  6
Continuous
 62
     7
370
    25
100
AcDbLine
 10
679.9000770745
 20
-218.390117759
 30
0.0
 11
374.7552167213
 21
-42.2337394711
 31
0.0
  0
LINE
  5
2A7
330
1F
100
AcDbEntity
  8
0
  6
Continuous
 62
     7
370
    25
100
AcDbLine
 10
623.1706490488
 20
-565.1085461899
 30
0.0
 11
625.2919693924
 21
-566.3331583577
 31
0.0
  0
LINE
  5
2A8
330
1F
100
AcDbEntity
  8
0
  6
Continuous
 62
     7
370
    25
100
AcDbLine
 10
368.5344509738
 20
-42.2358697665
 30
0.0
 11
319.0369762907
 21
-70.8101536803
 31
0.0
  0
LINE
  5
2A9
330
1F
100
AcDbEntity
  8
0
  6
Continuous
 62
     7
370
    25
100
AcDbLine
 10
328.2868674075
 20
-394.8757625551
 30
0.0
 11
330.408187751
 21
-396.1003747228
 31
0.0
  0
SPLINE
  5
2AA
330
1F
100
AcDbEntity
  8
0
  6
Continuous
 62
     7
370
    25
100
AcDbSpline
210
0.0
220
0.0
230
1.0
 70
     8
 71
     3
 72
     8
 73
     4
 74
     0
 42
0.000000001
 43
0.00000001
 40
0.0
 40
0.0
 40
0.0
 40
0.0
 40
1.0
 40
1.0
 40
1.0
 40
1.0
 10
627.2815620093759
 20
-247.2633871562853
 30
0.0
 10
627.2726113756511
 20
-247.2729152027667
 30
0.0
 10
627.2636607366774
 20
-247.2825069428457
 30
0.0
 10
627.2547105705432
 20
-247.2921620981392
 30
0.0
  0
ARC
  5
2AB
330
1F
100
AcDbEntity
  8
0
  6
Continuous
 62
     7
370
    25
100
AcDbCircle
 10
632.4641806853
 20
-255.3398553716
 30
0.0
 40
9.586654572899798
100
AcDbArc
 50
122.9159768464
 51
177.3707620233
  0
LINE
  5
2AC
330
1F
100
AcDbEntity
  8
0
  6
Continuous
 62
     7
370
    25
100
AcDbLine
 10
622.8876180696
 20
-254.900089107
 30
0.0
 11
317.7427577164
 21
-78.743710819
 31
0.0
  0
ARC
  5
2AD
330
1F
100
AcDbEntity
  8
0
  6
Continuous
 62
     7
370
    25
100
AcDbCircle
 10
327.3193203321
 20
-79.1834770836
 30
0.0
 40
9.586654572899654
100
AcDbArc
 50
122.9159768464
 51
177.3707620233
  0
SPLINE
  5
2AE
330
1F
100
AcDbEntity
  8
0
  6
Continuous
 62
     7
370
    25
100
AcDbSpline
210
0.0
220
0.0
230
1.0
 70
     8
 71
     3
 72
     8
 73
     4
 74
     0
 42
0.000000001
 43
0.00000001
 40
0.0
 40
0.0
 40
0.0
 40
0.0
 40
1.0
 40
1.0
 40
1.0
 40
1.0
 10
322.109850217301
 20
-71.1357838101529
 30
0.0
 10
322.1263545881367
 20
-71.13048960440818
 30
0.0
 10
322.1428594318086
 20
-71.12525881387639
 30
0.0
 10
322.1593642702366
 20
-71.12009171694442
 30
0.0
  0
LINE
  5
2AF
330
1F
100
AcDbEntity
  8
0
  6
Continuous
 62
     7
370
    25
100
AcDbLine
 10
627.2815620094
 20
-247.2633871563
 30
0.0
 11
322.1593642702
 21
-71.1200917169
 31
0.0
  0
ARC
  5
2B0
330
1F
100
AcDbEntity
  8
0
  6
Continuous
 62
     7
370
    25
100
AcDbCircle
 10
629.9739941514
 20
-253.9034777474
 30
0.0
 40
4.970288004889724
100
AcDbArc
 50
122.9159768464
 51
177.3707620233
  0
LINE
  5
2B1
330
1F
100
AcDbEntity
  8
0
  6
Continuous
 62
     7
370
    25
100
AcDbLine
 10
625.0089384132
 20
-253.6754769392
 30
0.0
 11
622.8876180696
 21
-254.900089107
 31
0.0
  0
LINE
  5
2B2
330
1F
100
AcDbEntity
  8
0
  6
Continuous
 62
     7
370
    25
100
AcDbLine
 10
627.2547105705
 20
-247.2921620981
 30
0.0
 11
627.2730971255
 21
-249.7310781851
 31
0.0
  0
SPLINE
  5
2B3
330
1F
100
AcDbEntity
  8
0
  6
Continuous
 62
     7
370
    25
100
AcDbSpline
210
0.0
220
0.0
230
1.0
 70
     8
 71
     3
 72
     8
 73
     4
 74
     0
 42
0.000000001
 43
0.00000001
 40
0.0
 40
0.0
 40
0.0
 40
0.0
 40
1.0
 40
1.0
 40
1.0
 40
1.0
 10
676.7687892498477
 20
-218.700932976192
 30
0.0
 10
676.7875073388118
 20
-218.7067929535717
 30
0.0
 10
676.8062254200963
 20
-218.7127348604956
 30
0.0
 10
676.8249427963577
 20
-218.7187582904306
 30
0.0
  0
ARC
  5
2B4
330
1F
100
AcDbEntity
  8
0
  6
Continuous
 62
     7
370
    25
100
AcDbCircle
 10
671.6087511331
 20
-226.7640358432
 30
0.0
 40
9.58828172136766
100
AcDbArc
 50
2.6323488028
 51
57.042461323
  0
LINE
  5
2B5
330
1F
100
AcDbEntity
  8
0
  6
Continuous
 62
     7
370
    25
100
AcDbLine
 10
681.1869152895
 20
-226.3236748978
 30
0.0
 11
631.6894406064
 21
-254.8979588116
 31
0.0
  0
ARC
  5
2B6
330
1F
100
AcDbEntity
  8
0
  6
Continuous
 62
     7
370
    25
100
AcDbCircle
 10
622.11127645
 20
-255.338319757
 30
0.0
 40
9.588281721367371
100
AcDbArc
 50
2.6323488028
 51
57.042461323
  0
SPLINE
  5
2B7
330
1F
100
AcDbEntity
  8
0
  6
Continuous
 62
     7
370
    25
100
AcDbSpline
210
0.0
220
0.0
230
1.0
 70
     8
 71
     3
 72
     8
 73
     4
 74
     0
 42
0.000000001
 43
0.00000001
 40
0.0
 40
0.0
 40
0.0
 40
0.0
 40
1.0
 40
1.0
 40
1.0
 40
1.0
 10
627.3274681132993
 20
-247.2930422042254
 30
0.0
 10
627.3173179322524
 20
-247.2820730377676
 30
0.0
 10
627.307167046175
 20
-247.2711853943242
 30
0.0
 10
627.2970161524219
 20
-247.2603796804199
 30
0.0
  0
LINE
  5
2B8
330
1F
100
AcDbEntity
  8
0
  6
Continuous
 62
     7
370
    25
100
AcDbLine
 10
676.7687892498
 20
-218.7009329762
 30
0.0
 11
627.2970161524
 21
-247.2603796804
 31
0.0
  0
ARC
  5
2B9
330
1F
100
AcDbEntity
  8
0
  6
Continuous
 62
     7
370
    25
100
AcDbCircle
 10
624.6022341914
 20
-253.9016557696
 30
0.0
 40
4.971131614770397
100
AcDbArc
 50
2.6323488028
 51
57.042461323
  0
LINE
  5
2BA
330
1F
100
AcDbEntity
  8
0
  6
Continuous
 62
     7
370
    25
100
AcDbLine
 10
627.3274681133
 20
-247.2930422042
 30
0.0
 11
627.306616065
 21
-249.7305086596
 31
0.0
  0
LINE
  5
2BB
330
1F
100
AcDbEntity
  8
0
  6
Continuous
 62
     7
370
    25
100
AcDbLine
 10
631.6894406064
 20
-254.8979588116
 30
0.0
 11
629.5681202628
 21
-253.6733466438
 31
0.0
  0
LINE
  5
2BC
330
1F
100
AcDbEntity
  8
0
  6
Continuous
 62
     7
370
    25
100
AcDbLine
 10
627.2970161524
 20
-249.7100021161
 30
0.0
 11
627.2970161524
 21
-247.2603796804
 31
0.0
  0
LINE
  5
2BD
330
1F
100
AcDbEntity
  8
0
  6
Continuous
 62
     7
370
    25
100
AcDbLine
 10
627.306616065
 20
-249.7305086596
 30
0.0
 11
627.2970161524
 21
-249.7100021161
 31
0.0
  0
LINE
  5
2BE
330
1F
100
AcDbEntity
  8
0
  6
Continuous
 62
     7
370
    25
100
AcDbLine
 10
627.2815620094
 20
-247.2633871563
 30
0.0
 11
627.2815620094
 21
-249.7130095919
 31
0.0
  0
LINE
  5
2BF
330
1F
100
AcDbEntity
  8
0
  6
Continuous
 62
     7
370
    25
100
AcDbLine
 10
627.2815620094
 20
-249.7130095919
 30
0.0
 11
627.2730971255
 21
-249.7310781851
 31
0.0
  0
LINE
  5
2C0
330
1F
100
AcDbEntity
  8
0
  6
Continuous
 62
     7
370
    25
100
AcDbLine
 10
676.7528491109
 20
-218.6970987902
 30
0.0
 11
676.7687892498
 21
-218.7009329762
 31
0.0
  0
LINE
  5
2C1
330
1F
100
AcDbEntity
  8
0
  6
Continuous
 62
     7
370
    25
100
AcDbLine
 10
627.2970161524
 20
-247.2603796804
 30
0.0
 11
627.2903744279
 21
-247.2511776341
 31
0.0
  0
LINE
  5
2C2
330
1F
100
AcDbEntity
  8
0
  6
Continuous
 62
     7
370
    25
100
AcDbLine
 10
627.2903744279
 20
-247.2511776341
 30
0.0
 11
627.2815620094
 21
-247.2633871563
 31
0.0
  0
LINE
  5
2C3
330
1F
100
AcDbEntity
  8
0
  6
Continuous
 62
     7
370
    25
100
AcDbLine
 10
322.1593642702
 20
-71.1200917169
 30
0.0
 11
322.1805140746
 21
-71.115004416
 31
0.0
  0
LINE
  5
2C4
330
1F
100
AcDbEntity
  8
0
  6
Continuous
 62
     7
370
    25
100
AcDbLine
 10
322.1805140746
 20
-71.115004416
 30
0.0
 11
322.1645739357
 21
-71.1111702301
 31
0.0
  0
LINE
  5
2C5
330
1F
100
AcDbEntity
  8
0
  6
Continuous
 62
     7
370
    25
100
AcDbLine
 10
371.6363470331
 20
-42.5517235258
 30
0.0
 11
322.1645739357
 21
-71.1111702301
 31
0.0
  0
LINE
  5
2C6
330
1F
100
AcDbEntity
  8
0
  6
Continuous
 62
     7
370
    25
100
AcDbLine
 10
371.6363470331
 20
-42.5517235258
 30
0.0
 11
371.6429887577
 21
-42.5609255722
 31
0.0
  0
LINE
  5
2C7
330
1F
100
AcDbEntity
  8
0
  6
Continuous
 62
     7
370
    25
100
AcDbLine
 10
371.6429887577
 20
-42.5609255722
 30
0.0
 11
371.6518011762
 21
-42.54871605
 31
0.0
  0
LINE
  5
2C8
330
1F
100
AcDbEntity
  8
0
  6
Continuous
 62
     7
370
    25
100
AcDbLine
 10
676.7739989153
 20
-218.6920114893
 30
0.0
 11
371.6518011762
 21
-42.54871605
 31
0.0
  0
LINE
  5
2C9
330
1F
100
AcDbEntity
  8
0
  6
Continuous
 62
     7
370
    25
100
AcDbLine
 10
676.7739989153
 20
-218.6920114893
 30
0.0
 11
676.7528491109
 21
-218.6970987902
 31
0.0
  0
LINE
  5
2CA
330
1F
100
AcDbEntity
  8
0
  6
Continuous
 62
     7
370
    25
100
AcDbLine
 10
381.5707679655
 20
-89.2800849041
 30
0.0
 11
349.7509628122
 21
-70.9109023881
 31
0.0
  0
LWPOLYLINE
  5
2CB
330
1F
100
AcDbEntity
  8
0
  6
Continuous
 62
     7
370
    25
100
AcDbPolyline
 90
       13
 70
   128
 43
0.0
 10
349.7509628122
 20
-70.9109023881
 10
348.6118755156
 20
-70.4063226638
 10
347.2853802637
 20
-70.0891305889
 10
345.8618755156
 20
-69.9809422791
 10
344.4383707676
 20
-70.0891305889
 10
343.1118755156
 20
-70.4063226638
 10
341.9727882191
 20
-70.9109023881
 10
341.0987357948
 20
-71.5684834874
 10
340.549283471
 20
-72.3342528964
 10
340.3618755156
 20
-73.1560246956
 10
340.549283471
 20
-73.9777964947
 10
341.0987357948
 20
-74.7435659038
 10
341.9727882191
 20
-75.4011470031
  0
LINE
  5
2CC
330
1F
100
AcDbEntity
  8
0
  6
Continuous
 62
     7
370
    25
100
AcDbLine
 10
341.9727882191
 20
-75.4011470031
 30
0.0
 11
373.7925933725
 21
-93.7703295191
 31
0.0
  0
LWPOLYLINE
  5
2CD
330
1F
100
AcDbEntity
  8
0
  6
Continuous
 62
     7
370
    25
100
AcDbPolyline
 90
       13
 70
   128
 43
0.0
 10
373.7925933725
 20
-93.7703295191
 10
374.931680669
 20
-94.2749092434
 10
376.258175921
 20
-94.5921013183
 10
377.681680669
 20
-94.7002896281
 10
379.1051854171
 20
-94.5921013183
 10
380.431680669
 20
-94.2749092434
 10
381.5707679655
 20
-93.7703295191
 10
382.4448203898
 20
-93.1127484198
 10
382.9942727136
 20
-92.3469790108
 10
383.181680669
 20
-91.5252072116
 10
382.9942727136
 20
-90.7034354124
 10
382.4448203898
 20
-89.9376660034
 10
381.5707679655
 20
-89.2800849041
  0
LINE
  5
2CE
330
1F
100
AcDbEntity
  8
0
  6
Continuous
 62
     7
370
    25
100
AcDbLine
 10
588.045948072
 20
-217.4561584603
 30
0.0
 11
619.8657532254
 21
-235.8253409763
 31
0.0
  0
LWPOLYLINE
  5
2CF
330
1F
100
AcDbEntity
  8
0
  6
Continuous
 62
     7
370
    25
100
AcDbPolyline
 90
       13
 70
   128
 43
0.0
 10
619.8657532254
 20
-235.8253409763
 10
621.0048405219
 20
-236.3299207005
 10
622.3313357739
 20
-236.6471127754
 10
623.7548405219
 20
-236.7553010852
 10
625.17834527
 20
-236.6471127754
 10
626.5048405219
 20
-236.3299207005
 10
627.6439278185
 20
-235.8253409763
 10
628.5179802428
 20
-235.167759877
 10
629.0674325665
 20
-234.4019904679
 10
629.2548405219
 20
-233.5802186688
 10
629.0674325665
 20
-232.7584468696
 10
628.5179802428
 20
-231.9926774605
 10
627.6439278185
 20
-231.3350963612
  0
LINE
  5
2D0
330
1F
100
AcDbEntity
  8
0
  6
Continuous
 62
     7
370
    25
100
AcDbLine
 10
627.6439278185
 20
-231.3350963612
 30
0.0
 11
595.8241226651
 21
-212.9659138452
 31
0.0
  0
LWPOLYLINE
  5
2D1
330
1F
100
AcDbEntity
  8
0
  6
Continuous
 62
     7
370
    25
100
AcDbPolyline
 90
       13
 70
   128
 43
0.0
 10
595.8241226651
 20
-212.9659138452
 10
594.6850353685
 20
-212.461334121
 10
593.3585401166
 20
-212.1441420461
 10
591.9350353685
 20
-212.0359537363
 10
590.5115306205
 20
-212.1441420461
 10
589.1850353685
 20
-212.461334121
 10
588.045948072
 20
-212.9659138452
 10
587.1718956477
 20
-213.6234949445
 10
586.622443324
 20
-214.3892643536
 10
586.4350353685
 20
-215.2110361527
 10
586.622443324
 20
-216.0328079519
 10
587.1718956477
 20
-216.798577361
 10
588.045948072
 20
-217.4561584603
  0
LINE
  5
2D2
330
1F
100
AcDbEntity
  8
0
  6
Continuous
 62
     7
370
    25
100
AcDbLine
 10
410.8874151135
 20
-72.355944746
 30
0.0
 11
379.0676099601
 21
-53.98676223
 31
0.0
  0
LWPOLYLINE
  5
2D3
330
1F
100
AcDbEntity
  8
0
  6
Continuous
 62
     7
370
    25
100
AcDbPolyline
 90
       13
 70
   128
 43
0.0
 10
379.0676099601
 20
-53.98676223
 10
377.9285226636
 20
-53.4821825057
 10
376.6020274117
 20
-53.1649904308
 10
375.1785226636
 20
-53.056802121
 10
373.7550179156
 20
-53.1649904308
 10
372.4285226636
 20
-53.4821825057
 10
371.2894353671
 20
-53.98676223
 10
370.4153829428
 20
-54.6443433293
 10
369.865930619
 20
-55.4101127384
 10
369.6785226636
 20
-56.2318845375
 10
369.865930619
 20
-57.0536563367
 10
370.4153829428
 20
-57.8194257457
 10
371.2894353671
 20
-58.477006845
  0
LINE
  5
2D4
330
1F
100
AcDbEntity
  8
0
  6
Continuous
 62
     7
370
    25
100
AcDbLine
 10
371.2894353671
 20
-58.477006845
 30
0.0
 11
403.1092405205
 21
-76.846189361
 31
0.0
  0
LWPOLYLINE
  5
2D5
330
1F
100
AcDbEntity
  8
0
  6
Continuous
 62
     7
370
    25
100
AcDbPolyline
 90
       13
 70
   128
 43
0.0
 10
403.1092405205
 20
-76.846189361
 10
404.248327817
 20
-77.3507690853
 10
405.574823069
 20
-77.6679611602
 10
406.998327817
 20
-77.77614947
 10
408.4218325651
 20
-77.6679611602
 10
409.748327817
 20
-77.3507690853
 10
410.8874151135
 20
-76.846189361
 10
411.7614675378
 20
-76.1886082618
 10
412.3109198616
 20
-75.4228388527
 10
412.498327817
 20
-74.6010670535
 10
412.3109198616
 20
-73.7792952544
 10
411.7614675378
 20
-73.0135258453
 10
410.8874151135
 20
-72.355944746
  0
LINE
  5
2D6
330
1F
100
AcDbEntity
  8
0
  6
Continuous
 62
     7
370
    25
100
AcDbLine
 10
617.36259522
 20
-200.5320183022
 30
0.0
 11
649.1824003734
 21
-218.9012008182
 31
0.0
  0
LWPOLYLINE
  5
2D7
330
1F
100
AcDbEntity
  8
0
  6
Continuous
 62
     7
370
    25
100
AcDbPolyline
 90
       13
 70
   128
 43
0.0
 10
649.1824003734
 20
-218.9012008182
 10
650.3214876699
 20
-219.4057805424
 10
651.6479829219
 20
-219.7229726173
 10
653.0714876699
 20
-219.8311609271
 10
654.494992418
 20
-219.7229726173
 10
655.8214876699
 20
-219.4057805424
 10
656.9605749665
 20
-218.9012008182
 10
657.8346273907
 20
-218.2436197189
 10
658.3840797145
 20
-217.4778503098
 10
658.5714876699
 20
-216.6560785107
 10
658.3840797145
 20
-215.8343067115
 10
657.8346273907
 20
-215.0685373024
 10
656.9605749665
 20
-214.4109562032
  0
LINE
  5
2D8
330
1F
100
AcDbEntity
  8
0
  6
Continuous
 62
     7
370
    25
100
AcDbLine
 10
656.9605749665
 20
-214.4109562032
 30
0.0
 11
625.1407698131
 21
-196.0417736871
 31
0.0
  0
LWPOLYLINE
  5
2D9
330
1F
100
AcDbEntity
  8
0
  6
Continuous
 62
     7
370
    25
100
AcDbPolyline
 90
       13
 70
   128
 43
0.0
 10
625.1407698131
 20
-196.0417736871
 10
624.0016825165
 20
-195.5371939629
 10
622.6751872646
 20
-195.220001888
 10
621.2516825165
 20
-195.1118135782
 10
619.8281777685
 20
-195.220001888
 10
618.5016825165
 20
-195.5371939629
 10
617.36259522
 20
-196.0417736871
 10
616.4885427957
 20
-196.6993547864
 10
615.939090472
 20
-197.4651241955
 10
615.7516825165
 20
-198.2868959947
 10
615.939090472
 20
-199.1086677938
 10
616.4885427957
 20
-199.8744372029
 10
617.36259522
 20
-200.5320183022
  0
LWPOLYLINE
  5
2DA
330
1F
100
AcDbEntity
  8
0
  6
Continuous
 62
     7
370
    25
100
AcDbPolyline
 90
       28
 70
   128
 43
0.0
 10
436.5341780672
 20
-108.575890627
 10
437.4702423603
 20
-107.8924707018
 10
438.1080611727
 20
-107.1028526107
 10
438.4132495271
 20
-106.2496048692
 10
438.3693546402
 20
-105.3787262841
 10
437.9787428969
 20
-104.5371661451
 10
437.2624722773
 20
-103.7702931774
 10
436.259157116
 20
-103.119449701
 10
435.0228863928
 20
-102.6197228562
 10
433.6203077826
 20
-102.2980530466
 10
432.1270346613
 20
-102.1717815749
 10
430.6235697693
 20
-102.2477157688
 10
429.1909652882
 20
-102.5217619962
 10
427.9064532962
 20
-102.9791463542
 10
426.8392821675
 20
-103.5952111335
 10
426.0469833737
 20
-104.3367441225
 10
425.572269948
 20
-105.1637690857
 10
425.4407338139
 20
-106.0317008934
 10
425.6594661186
 20
-106.8937491171
 10
426.2166749468
 20
-107.703440514
 10
427.0823210264
 20
-108.4171244113
 10
428.2097371532
 20
-108.9963259253
 10
429.5381440319
 20
-109.4098201525
 10
430.995926904
 20
-109.6353155122
 10
432.5044963173
 20
-109.6606554909
 10
433.9825249045
 20
-109.4844740041
 10
435.3503317616
 20
-109.1162690412
 10
436.5341780672
 20
-108.575890627
  0
LWPOLYLINE
  5
2DB
330
1F
100
AcDbEntity
  8
0
  6
Continuous
 62
     7
370
    25
100
AcDbPolyline
 90
       28
 70
   128
 43
0.0
 10
571.5915732738
 20
-186.5428653061
 10
572.5276375669
 20
-185.8594453809
 10
573.1654563793
 20
-185.0698272897
 10
573.4706447337
 20
-184.2165795483
 10
573.4267498469
 20
-183.3457009631
 10
573.0361381036
 20
-182.5041408242
 10
572.319867484
 20
-181.7372678565
 10
571.3165523226
 20
-181.0864243801
 10
570.0802815995
 20
-180.5866975353
 10
568.6777029893
 20
-180.2650277257
 10
567.1844298679
 20
-180.138756254
 10
565.6809649759
 20
-180.2146904479
 10
564.2483604948
 20
-180.4887366753
 10
562.9638485029
 20
-180.9461210332
 10
561.8966773741
 20
-181.5621858126
 10
561.1043785804
 20
-182.3037188015
 10
560.6296651546
 20
-183.1307437648
 10
560.4981290206
 20
-183.9986755725
 10
560.7168613252
 20
-184.8607237962
 10
561.2740701534
 20
-185.6704151931
 10
562.139716233
 20
-186.3840990904
 10
563.2671323598
 20
-186.9633006044
 10
564.5955392386
 20
-187.3767948316
 10
566.0533221106
 20
-187.6022901912
 10
567.561891524
 20
-187.62763017
 10
569.0399201111
 20
-187.4514486832
 10
570.4077269683
 20
-187.0832437202
 10
571.5915732738
 20
-186.5428653061
  0
LWPOLYLINE
  5
2DC
330
1F
100
AcDbEntity
  8
0
  6
Continuous
 62
     7
370
    25
100
AcDbPolyline
 90
       28
 70
   128
 43
0.0
 10
504.0628756705
 20
-147.5593779666
 10
504.9989399636
 20
-146.8759580414
 10
505.636758776
 20
-146.0863399502
 10
505.9419471304
 20
-145.2330922087
 10
505.8980522436
 20
-144.3622136236
 10
505.5074405003
 20
-143.5206534847
 10
504.7911698807
 20
-142.7537805169
 10
503.7878547193
 20
-142.1029370405
 10
502.5515839961
 20
-141.6032101957
 10
501.1490053859
 20
-141.2815403862
 10
499.6557322646
 20
-141.1552689144
 10
498.1522673726
 20
-141.2312031083
 10
496.7196628915
 20
-141.5052493358
 10
495.4351508995
 20
-141.9626336937
 10
494.3679797708
 20
-142.578698473
 10
493.575680977
 20
-143.320231462
 10
493.1009675513
 20
-144.1472564252
 10
492.9694314172
 20
-145.0151882329
 10
493.1881637219
 20
-145.8772364567
 10
493.7453725501
 20
-146.6869278536
 10
494.6110186297
 20
-147.4006117508
 10
495.7384347565
 20
-147.9798132649
 10
497.0668416352
 20
-148.3933074921
 10
498.5246245073
 20
-148.6188028517
 10
500.0331939206
 20
-148.6441428305
 10
501.5112225078
 20
-148.4679613436
 10
502.879029365
 20
-148.0997563807
 10
504.0628756705
 20
-147.5593779666
  0
LINE
  5
2DD
330
1F
100
AcDbEntity
  8
0
  6
Continuous
 62
     7
370
    25
100
AcDbLine
 10
627.2903744279
 20
-247.2511776341
 30
0.0
 11
627.2903744279
 21
-249.7008000698
 31
0.0
  0
LINE
  5
2DE
330
1F
100
AcDbEntity
  8
0
  6
Continuous
 62
     7
370
    25
100
AcDbLine
 10
627.2815620094
 20
-249.7130095919
 30
0.0
 11
627.2903744279
 21
-249.7008000698
 31
0.0
  0
ARC
  5
2DF
330
1F
100
AcDbEntity
  8
0
  6
Continuous
 62
     7
370
    25
100
AcDbCircle
 10
621.5943949674
 20
-259.8242199018
 30
0.0
 40
1.310127592285391
100
AcDbArc
 50
230.7967147643
 51
9.2140369905
  0
LINE
  5
2E0
330
1F
100
AcDbEntity
  8
0
  6
Continuous
 62
     7
370
    25
100
AcDbLine
 10
319.86407806
 20
-87.1322946265
 30
0.0
 11
620.7662977261
 21
-260.839448579
 31
0.0
  0
ARC
  5
2E1
330
1F
100
AcDbEntity
  8
0
  6
Continuous
 62
     7
370
    25
100
AcDbCircle
 10
322.3484060205
 20
-83.2484774663
 30
0.0
 40
4.610414422716461
100
AcDbArc
 50
182.6054784857
 51
237.39452166
  0
LINE
  5
2E2
330
1F
100
AcDbEntity
  8
0
  6
Continuous
 62
     7
370
    25
100
AcDbLine
 10
317.7427577164
 20
-78.743710819
 30
0.0
 11
317.7427577164
 21
-83.4580600231
 31
0.0
  0
LINE
  5
2E3
330
1F
100
AcDbEntity
  8
0
  6
Continuous
 62
     7
370
    25
100
AcDbLine
 10
622.8876180696
 20
-259.6144383111
 30
0.0
 11
622.8876180696
 21
-254.900089107
 31
0.0
  0
LINE
  5
2E4
330
1F
100
AcDbEntity
  8
0
  6
Continuous
 62
     7
370
    25
100
AcDbLine
 10
625.0089384132
 20
-258.3898261434
 30
0.0
 11
622.8876180696
 21
-259.6144383111
 31
0.0
  0
LINE
  5
2E5
330
1F
100
AcDbEntity
  8
0
  6
Continuous
 62
     7
370
    25
100
AcDbLine
 10
625.0089384132
 20
-258.3898261434
 30
0.0
 11
625.0089384132
 21
-253.6754769392
 31
0.0
  0
LINE
  5
2E6
330
1F
100
AcDbEntity
  8
0
  6
Continuous
 62
     7
370
    25
100
AcDbLine
 10
627.2903744279
 20
-249.7008000698
 30
0.0
 11
627.2970161524
 21
-249.7100021161
 31
0.0
  0
LINE
  5
2E7
330
1F
100
AcDbEntity
  8
0
  6
Continuous
 62
     7
370
    25
100
AcDbLine
 10
629.5681202628
 20
-253.6733466438
 30
0.0
 11
629.5681202628
 21
-380.7916800297
 31
0.0
  0
LINE
  5
2E8
330
1F
100
AcDbEntity
  8
0
  6
Continuous
 62
     7
370
    25
100
AcDbLine
 10
631.6894406064
 20
-254.8979588116
 30
0.0
 11
631.6894406064
 21
-382.0162921975
 31
0.0
  0
LINE
  5
2E9
330
1F
100
AcDbEntity
  8
0
  6
Continuous
 62
     7
370
    25
100
AcDbLine
 10
631.6894406064
 20
-382.0162921975
 30
0.0
 11
629.5681202628
 21
-380.7916800297
 31
0.0
  0
LINE
  5
2EA
330
1F
100
AcDbEntity
  8
0
  6
Continuous
 62
     7
370
    25
100
AcDbLine
 10
681.1869152895
 20
-353.4420082837
 30
0.0
 11
681.1869152895
 21
-226.3236748978
 31
0.0
  0
LINE
  5
2EB
330
1F
100
AcDbEntity
  8
0
  6
Continuous
 62
     7
370
    25
100
AcDbLine
 10
681.1869152895
 20
-353.4420082837
 30
0.0
 11
631.6894406064
 21
-382.0162921975
 31
0.0
  0
ARC
  5
2EC
330
1F
100
AcDbEntity
  8
0
  6
Continuous
 62
     7
370
    25
100
AcDbCircle
 10
623.5389327064
 20
-258.5520863555
 30
0.0
 40
1.478933789731516
100
AcDbArc
 50
305.0133328686
 51
6.2988475247
  0
LINE
  5
2ED
330
1F
100
AcDbEntity
  8
0
  6
Continuous
 62
     7
370
    25
100
AcDbLine
 10
627.6439278185
 20
-233.7847187969
 30
0.0
 11
627.6439278185
 21
-231.3350963612
 31
0.0
  0
LWPOLYLINE
  5
2EE
330
1F
100
AcDbEntity
  8
0
  6
Continuous
 62
     7
370
    25
100
AcDbPolyline
 90
        3
 70
   128
 43
0.0
 10
628.8291421497
 20
-234.8050298866
 10
628.5179802428
 20
-234.4422998962
 10
627.6439278185
 20
-233.7847187969
  0
LINE
  5
2EF
330
1F
100
AcDbEntity
  8
0
  6
Continuous
 62
     7
370
    25
100
AcDbLine
 10
595.8241226651
 20
-215.4155362809
 30
0.0
 11
595.8241226651
 21
-212.9659138452
 31
0.0
  0
LINE
  5
2F0
330
1F
100
AcDbEntity
  8
0
  6
Continuous
 62
     7
370
    25
100
AcDbLine
 10
627.6439278185
 20
-233.7847187969
 30
0.0
 11
595.8241226651
 21
-215.4155362809
 31
0.0
  0
LINE
  5
2F1
330
1F
100
AcDbEntity
  8
0
  6
Continuous
 62
     7
370
    25
100
AcDbLine
 10
656.9605749665
 20
-216.8605786388
 30
0.0
 11
656.9605749665
 21
-214.4109562032
 31
0.0
  0
LWPOLYLINE
  5
2F2
330
1F
100
AcDbEntity
  8
0
  6
Continuous
 62
     7
370
    25
100
AcDbPolyline
 90
        3
 70
   128
 43
0.0
 10
658.1457892977
 20
-217.8808897285
 10
657.8346273907
 20
-217.5181597381
 10
656.9605749665
 20
-216.8605786388
  0
ARC
  5
2F3
330
1F
100
AcDbEntity
  8
0
  6
Continuous
 62
     7
370
    25
100
AcDbCircle
 10
678.511937652
 20
-220.8023161184
 30
0.0
 40
2.714592992731389
100
AcDbArc
 50
350.6682124728
 51
128.4609266939
  0
SPLINE
  5
2F4
330
1F
100
AcDbEntity
  8
0
  6
Continuous
 62
     7
370
    25
100
AcDbSpline
210
0.0
220
0.0
230
1.0
 70
     8
 71
     3
 72
     8
 73
     4
 74
     0
 42
0.000000001
 43
0.00000001
 40
0.0
 40
0.0
 40
0.0
 40
0.0
 40
1.0
 40
1.0
 40
1.0
 40
1.0
 10
676.8235129682627
 20
-218.6767015711393
 30
0.0
 10
676.8070085974249
 20
-218.6817409951217
 30
0.0
 10
676.7905037537527
 20
-218.6868443923794
 30
0.0
 10
676.7739989153272
 20
-218.6920114893107
 30
0.0
  0
SPLINE
  5
2F5
330
1F
100
AcDbEntity
  8
0
  6
Continuous
 62
     7
370
    25
100
AcDbSpline
210
0.0
220
0.0
230
1.0
 70
     8
 71
     3
 72
     8
 73
     4
 74
     0
 42
0.000000001
 43
0.00000001
 40
0.0
 40
0.0
 40
0.0
 40
0.0
 40
1.0
 40
1.0
 40
1.0
 40
1.0
 10
371.6518011761879
 20
-42.54871604996979
 30
0.0
 10
371.6607518099122
 20
-42.539188003489
 30
0.0
 10
371.6697024488857
 20
-42.52972365668423
 30
0.0
 10
371.6786526150204
 20
-42.52032328315314
 30
0.0
  0
ARC
  5
2F6
330
1F
100
AcDbEntity
  8
0
  6
Continuous
 62
     7
370
    25
100
AcDbCircle
 10
373.467187273
 20
-45.0635689591
 30
0.0
 40
3.109172685957325
100
AcDbArc
 50
65.5267989472
 51
125.1167603262
  0
LINE
  5
2F7
330
1F
100
AcDbEntity
  8
0
  6
Continuous
 62
     7
370
    25
100
AcDbLine
 10
679.8999956526
 20
-221.9875440916
 30
0.0
 11
681.1906054692
 21
-221.2424909034
 31
0.0
  0
ARC
  5
2F8
330
1F
100
AcDbEntity
  8
0
  6
Continuous
 62
     7
370
    25
100
AcDbCircle
 10
592.027431366
 20
-221.9434150739
 30
0.0
 40
7.551692946411964
100
AcDbArc
 50
59.8172123575
 51
133.1709484014
  0
LINE
  5
2F9
330
1F
100
AcDbEntity
  8
0
  6
Continuous
 62
     7
370
    25
100
AcDbLine
 10
657.1774834303
 20
-216.9932065968
 30
0.0
 11
624.9110265582
 21
-198.366177532
 31
0.0
  0
LINE
  5
2FA
330
1F
100
AcDbEntity
  8
0
  6
Continuous
 62
     7
370
    25
100
AcDbLine
 10
411.1043235774
 20
-74.9381951396
 30
0.0
 11
378.8378667053
 21
-56.3111660748
 31
0.0
  0
LINE
  5
2FB
330
1F
100
AcDbEntity
  8
0
  6
Continuous
 62
     7
370
    25
100
AcDbLine
 10
681.1906054692
 20
-221.2424909034
 30
0.0
 11
681.1906054692
 21
-225.9568401075
 31
0.0
  0
LINE
  5
2FC
330
1F
100
AcDbEntity
  8
0
  6
Continuous
 62
     7
370
    25
100
AcDbLine
 10
681.1763275622
 20
-225.9650825677
 30
0.0
 11
681.1906054692
 21
-225.9568401075
 31
0.0
  0
LINE
  5
2FD
330
1F
100
AcDbEntity
  8
0
  6
Continuous
 62
     7
370
    25
100
AcDbLine
 10
625.1407698131
 20
-198.4913961228
 30
0.0
 11
625.1407698131
 21
-196.0417736871
 31
0.0
  0
LINE
  5
2FE
330
1F
100
AcDbEntity
  8
0
  6
Continuous
 62
     7
370
    25
100
AcDbLine
 10
656.9605749665
 20
-216.8605786388
 30
0.0
 11
625.1407698131
 21
-198.4913961228
 31
0.0
  0
LINE
  5
2FF
330
1F
100
AcDbEntity
  8
0
  6
Continuous
 62
     7
370
    25
100
AcDbLine
 10
681.1906054692
 20
-225.9568401075
 30
0.0
 11
681.1841965825
 21
-226.1434119696
 31
0.0
  0
ARC
  5
300
330
1F
100
AcDbEntity
  8
0
  6
Continuous
 62
     7
370
    25
100
AcDbCircle
 10
621.344078514
 20
-205.0192749158
 30
0.0
 40
7.551692946412099
100
AcDbArc
 50
59.8172123575
 51
133.1709484014
  0
LWPOLYLINE
  5
301
330
1F
100
AcDbEntity
  8
0
  6
Continuous
 62
     7
370
    25
100
AcDbPolyline
 90
       13
 70
   128
 43
0.0
 10
573.1393630022
 20
-185.1143501605
 10
573.0361381036
 20
-184.9537632599
 10
572.319867484
 20
-184.1868902921
 10
571.3165523226
 20
-183.5360468157
 10
570.0802815995
 20
-183.0363199709
 10
568.6777029893
 20
-182.7146501614
 10
567.1844298679
 20
-182.5883786896
 10
565.6809649759
 20
-182.6643128835
 10
564.2483604948
 20
-182.938359111
 10
562.9638485029
 20
-183.3957434689
 10
561.8966773741
 20
-184.0118082482
 10
561.1043785804
 20
-184.7533412372
 10
560.85139539
 20
-185.1143501605
  0
ARC
  5
302
330
1F
100
AcDbEntity
  8
0
  6
Continuous
 62
     7
370
    25
100
AcDbCircle
 10
676.3705701937
 20
-353.9159846568
 30
0.0
 40
4.839610902128156
100
AcDbArc
 50
305.6980385288
 51
5.6203789637
  0
LINE
  5
303
330
1F
100
AcDbEntity
  8
0
  6
Continuous
 62
     7
370
    25
100
AcDbLine
 10
679.1945480544
 20
-357.8462496258
 30
0.0
 11
629.6970733714
 21
-386.4205335396
 31
0.0
  0
ARC
  5
304
330
1F
100
AcDbEntity
  8
0
  6
Continuous
 62
     7
370
    25
100
AcDbCircle
 10
626.8730955106
 20
-382.4902685706
 30
0.0
 40
4.839610902128694
100
AcDbArc
 50
305.6980385288
 51
5.6203789637
  0
ARC
  5
305
330
1F
100
AcDbEntity
  8
0
  6
Continuous
 62
     7
370
    25
100
AcDbCircle
 10
626.2537538872
 20
-381.1178467231
 30
0.0
 40
3.330376733065701
100
AcDbArc
 50
305.6980385288
 51
5.6203789637
  0
LINE
  5
306
330
1F
100
AcDbEntity
  8
0
  6
Continuous
 62
     7
370
    25
100
AcDbLine
 10
629.6970733714
 20
-386.4205335396
 30
0.0
 11
628.1970733714
 21
-383.8224573358
 31
0.0
  0
LINE
  5
307
330
1F
100
AcDbEntity
  8
0
  6
Continuous
 62
     7
370
    25
100
AcDbLine
 10
624.5915421352
 20
-389.3688521217
 30
0.0
 11
623.0915421352
 21
-386.770775918
 31
0.0
  0
LINE
  5
308
330
1F
100
AcDbEntity
  8
0
  6
Continuous
 62
     7
370
    25
100
AcDbLine
 10
628.1970733714
 20
-383.8224573358
 30
0.0
 11
623.0915421352
 21
-386.770775918
 31
0.0
  0
LINE
  5
309
330
1F
100
AcDbEntity
  8
0
  6
Continuous
 62
     7
370
    25
100
AcDbLine
 10
629.6970733714
 20
-386.4205335396
 30
0.0
 11
624.5915421352
 21
-389.3688521217
 31
0.0
  0
LINE
  5
30A
330
1F
100
AcDbEntity
  8
0
  6
Continuous
 62
     7
370
    25
100
AcDbLine
 10
674.0890168182
 20
-360.7945682079
 30
0.0
 11
624.5915421352
 21
-389.3688521217
 31
0.0
  0
LINE
  5
30B
330
1F
100
AcDbEntity
  8
0
  6
Continuous
 62
     7
370
    25
100
AcDbLine
 10
674.0890168182
 20
-360.7945682079
 30
0.0
 11
679.1945480544
 21
-357.8462496258
 31
0.0
  0
LINE
  5
30C
330
1F
100
AcDbEntity
  8
0
  6
Continuous
 62
     7
370
    25
100
AcDbLine
 10
623.2204952437
 20
-392.3996294278
 30
0.0
 11
621.0991749002
 21
-391.17501726
 31
0.0
  0
ARC
  5
30D
330
1F
100
AcDbEntity
  8
0
  6
Continuous
 62
     7
370
    25
100
AcDbCircle
 10
625.9155199959
 20
-390.7010408869
 30
0.0
 40
4.839610902128542
100
AcDbArc
 50
125.6980385288
 51
185.6203789637
  0
ARC
  5
30E
330
1F
100
AcDbEntity
  8
0
  6
Continuous
 62
     7
370
    25
100
AcDbCircle
 10
626.5348616194
 20
-392.0734627344
 30
0.0
 40
3.330376733065473
100
AcDbArc
 50
125.6980385288
 51
185.6203789637
  0
ARC
  5
30F
330
1F
100
AcDbEntity
  8
0
  6
Continuous
 62
     7
370
    25
100
AcDbCircle
 10
676.0323363025
 20
-363.4991788206
 30
0.0
 40
3.330376733065943
100
AcDbArc
 50
125.6980385288
 51
185.6203789637
  0
LINE
  5
310
330
1F
100
AcDbEntity
  8
0
  6
Continuous
 62
     7
370
    25
100
AcDbLine
 10
672.7179699268
 20
-363.825345514
 30
0.0
 11
623.2204952437
 21
-392.3996294278
 31
0.0
  0
LINE
  5
311
330
1F
100
AcDbEntity
  8
0
  6
Continuous
 62
     7
370
    25
100
AcDbLine
 10
621.0991749002
 20
-560.5300981253
 30
0.0
 11
623.2204952437
 21
-561.754710293
 31
0.0
  0
LINE
  5
312
330
1F
100
AcDbEntity
  8
0
  6
Continuous
 62
     7
370
    25
100
AcDbLine
 10
621.0991749002
 20
-391.17501726
 30
0.0
 11
621.0991749002
 21
-560.5300981253
 31
0.0
  0
LINE
  5
313
330
1F
100
AcDbEntity
  8
0
  6
Continuous
 62
     7
370
    25
100
AcDbLine
 10
623.2204952437
 20
-392.3996294278
 30
0.0
 11
623.2204952437
 21
-561.754710293
 31
0.0
  0
ARC
  5
314
330
1F
100
AcDbEntity
  8
0
  6
Continuous
 62
     7
370
    25
100
AcDbCircle
 10
648.5014844385
 20
-420.3042347926
 30
0.0
 40
4.277214709052497
100
AcDbArc
 50
153.9729422811
 51
214.0533113711
  0
ARC
  5
315
330
1F
100
AcDbEntity
  8
0
  6
Continuous
 62
     7
370
    25
100
AcDbCircle
 10
640.7264866027
 20
-424.3319022997
 30
0.0
 40
4.53528653417613
100
AcDbArc
 50
330.0980603471
 51
21.0985426148
  0
ARC
  5
316
330
1F
100
AcDbEntity
  8
0
  6
Continuous
 62
     7
370
    25
100
AcDbCircle
 10
649.0734794976
 20
-428.5310417299
 30
0.0
 40
4.822121022951739
100
AcDbArc
 50
156.3002494635
 51
203.6997505356
  0
ARC
  5
317
330
1F
100
AcDbEntity
  8
0
  6
Continuous
 62
     7
370
    25
100
AcDbCircle
 10
641.3292844749
 20
-432.6137457893
 30
0.0
 40
3.959720511247824
100
AcDbArc
 50
327.2091342487
 51
32.7908657522
  0
ARC
  5
318
330
1F
100
AcDbEntity
  8
0
  6
Continuous
 62
     7
370
    25
100
AcDbCircle
 10
649.0734794976
 20
-436.6964498487
 30
0.0
 40
4.822121022955534
100
AcDbArc
 50
156.3002494635
 51
203.6997505356
  0
ARC
  5
319
330
1F
100
AcDbEntity
  8
0
  6
Continuous
 62
     7
370
    25
100
AcDbCircle
 10
641.3292844749
 20
-440.7791539081
 30
0.0
 40
3.959720511244089
100
AcDbArc
 50
327.2091342487
 51
32.7908657522
  0
LWPOLYLINE
  5
31A
330
1F
100
AcDbEntity
  8
0
  6
Continuous
 62
     7
370
    25
100
AcDbPolyline
 90
       16
 70
   128
 43
0.0
 10
644.6580352173
 20
-442.9236363683
 10
644.3288424286
 20
-444.2121614043
 10
644.2673112282
 20
-445.4079106868
 10
644.4779657298
 20
-446.4229661251
 10
644.9453174511
 20
-447.1826952378
 10
645.6350041126
 20
-447.6312385448
 10
646.4963161422
 20
-447.7356166651
 10
647.4659251229
 20
-447.488155143
 10
648.4725400477
 20
-446.9070487161
 10
649.4421490283
 20
-446.0350235381
 10
650.3034610579
 20
-444.9361957158
 10
650.9931477194
 20
-443.6913571391
 10
651.4604994408
 20
-442.3920352145
 10
651.6711539424
 20
-441.1337632657
 10
651.609622742
 20
-440.0090563949
 10
651.2804299532
 20
-439.1006092626
  0
ARC
  5
31B
330
1F
100
AcDbEntity
  8
0
  6
Continuous
 62
     7
370
    25
100
AcDbCircle
 10
654.6091806956
 20
-436.9561268024
 30
0.0
 40
3.959720511242788
100
AcDbArc
 50
147.2091342486
 51
212.7908657523
  0
ARC
  5
31C
330
1F
100
AcDbEntity
  8
0
  6
Continuous
 62
     7
370
    25
100
AcDbCircle
 10
646.8649856727
 20
-432.8734227431
 30
0.0
 40
4.822121023144762
100
AcDbArc
 50
336.3002494651
 51
23.6997505347
  0
ARC
  5
31D
330
1F
100
AcDbEntity
  8
0
  6
Continuous
 62
     7
370
    25
100
AcDbCircle
 10
654.6091806955
 20
-428.7907186836
 30
0.0
 40
3.959720511197768
100
AcDbArc
 50
147.2091342476
 51
212.7908657526
  0
ARC
  5
31E
330
1F
100
AcDbEntity
  8
0
  6
Continuous
 62
     7
370
    25
100
AcDbCircle
 10
646.8649856727
 20
-424.7080146242
 30
0.0
 40
4.822121023132376
100
AcDbArc
 50
336.300249465
 51
23.6997505348
  0
ARC
  5
31F
330
1F
100
AcDbEntity
  8
0
  6
Continuous
 62
     7
370
    25
100
AcDbCircle
 10
654.1408374888
 20
-420.7417402933
 30
0.0
 40
3.506412575831598
100
AcDbArc
 50
154.3212692736
 51
215.3369578982
  0
ARC
  5
320
330
1F
100
AcDbEntity
  8
0
  6
Continuous
 62
     7
370
    25
100
AcDbCircle
 10
646.3639262685
 20
-416.6039994122
 30
0.0
 40
5.307585765154286
100
AcDbArc
 50
330.4411188965
 51
22.1323000991
  0
ARC
  5
321
330
1F
100
AcDbEntity
  8
0
  6
Continuous
 62
     7
370
    25
100
AcDbCircle
 10
654.1408374888
 20
-412.5763321744
 30
0.0
 40
3.506412575859099
100
AcDbArc
 50
154.3212692742
 51
215.3369578981
  0
ARC
  5
322
330
1F
100
AcDbEntity
  8
0
  6
Continuous
 62
     7
370
    25
100
AcDbCircle
 10
646.3639262687
 20
-408.4385912933
 30
0.0
 40
5.307585765026995
100
AcDbArc
 50
330.4411188956
 51
22.1323000997
  0
ARC
  5
323
330
1F
100
AcDbEntity
  8
0
  6
Continuous
 62
     7
370
    25
100
AcDbCircle
 10
654.6091806956
 20
-404.294494327
 30
0.0
 40
3.959720511251614
100
AcDbArc
 50
147.2091342487
 51
212.7908657521
  0
LWPOLYLINE
  5
324
330
1F
100
AcDbEntity
  8
0
  6
Continuous
 62
     7
370
    25
100
AcDbPolyline
 90
       17
 70
   128
 43
0.0
 10
651.2804299532
 20
-402.1500118669
 10
651.6042274368
 20
-400.8952099347
 10
651.6748053117
 20
-399.7259590048
 10
651.4872470093
 20
-398.7237109844
 10
651.0546181438
 20
-397.9582840882
 10
650.40705634
 20
-397.4829991894
 10
649.5896717986
 20
-397.3309654011
 10
648.659404846
 20
-397.5127736424
 10
647.6810593798
 20
-398.0157588579
 10
646.7227885241
 20
-398.8048822854
 10
645.8513469737
 20
-399.8251723134
 10
645.1274407534
 20
-401.0055538916
 10
644.6014983391
 20
-402.2637997339
 10
644.3101577283
 20
-403.5122584042
 10
644.2737141781
 20
-404.6639602563
 10
644.4947064052
 20
-405.6386758801
 10
644.9577397342
 20
-406.3685050121
  0
ARC
  5
325
330
1F
100
AcDbEntity
  8
0
  6
Continuous
 62
     7
370
    25
100
AcDbCircle
 10
640.7264866027
 20
-408.001086062
 30
0.0
 40
4.535286534176412
100
AcDbArc
 50
330.0980603471
 51
21.0985426148
  0
ARC
  5
326
330
1F
100
AcDbEntity
  8
0
  6
Continuous
 62
     7
370
    25
100
AcDbCircle
 10
648.5014844387
 20
-412.1388266737
 30
0.0
 40
4.277214709205911
100
AcDbArc
 50
153.9729422823
 51
214.0533113697
  0
ARC
  5
327
330
1F
100
AcDbEntity
  8
0
  6
Continuous
 62
     7
370
    25
100
AcDbCircle
 10
640.7264866027
 20
-416.1664941808
 30
0.0
 40
4.5352865341388
100
AcDbArc
 50
330.0980603458
 51
21.0985426146
  0
ARC
  5
328
330
1F
100
AcDbEntity
  8
0
  6
Continuous
 62
     7
370
    25
100
AcDbCircle
 10
648.5014844385
 20
-481.544795684
 30
0.0
 40
4.277214709052293
100
AcDbArc
 50
153.9729422811
 51
214.0533113711
  0
ARC
  5
329
330
1F
100
AcDbEntity
  8
0
  6
Continuous
 62
     7
370
    25
100
AcDbCircle
 10
640.7264866027
 20
-485.5724631911
 30
0.0
 40
4.535286534175074
100
AcDbArc
 50
330.0980603471
 51
21.0985426148
  0
ARC
  5
32A
330
1F
100
AcDbEntity
  8
0
  6
Continuous
 62
     7
370
    25
100
AcDbCircle
 10
649.0734794976
 20
-489.7716026213
 30
0.0
 40
4.822121022954457
100
AcDbArc
 50
156.3002494635
 51
203.6997505356
  0
ARC
  5
32B
330
1F
100
AcDbEntity
  8
0
  6
Continuous
 62
     7
370
    25
100
AcDbCircle
 10
641.3292844749
 20
-493.8543066807
 30
0.0
 40
3.959720511247699
100
AcDbArc
 50
327.2091342487
 51
32.7908657522
  0
ARC
  5
32C
330
1F
100
AcDbEntity
  8
0
  6
Continuous
 62
     7
370
    25
100
AcDbCircle
 10
649.0734794976
 20
-497.9370107401
 30
0.0
 40
4.822121022955846
100
AcDbArc
 50
156.3002494635
 51
203.6997505356
  0
ARC
  5
32D
330
1F
100
AcDbEntity
  8
0
  6
Continuous
 62
     7
370
    25
100
AcDbCircle
 10
641.3292844749
 20
-502.0197147996
 30
0.0
 40
3.959720511245232
100
AcDbArc
 50
327.2091342487
 51
32.7908657522
  0
LWPOLYLINE
  5
32E
330
1F
100
AcDbEntity
  8
0
  6
Continuous
 62
     7
370
    25
100
AcDbPolyline
 90
       16
 70
   128
 43
0.0
 10
644.6580352173
 20
-504.1641972597
 10
644.3288424285
 20
-505.4527222957
 10
644.2673112281
 20
-506.6484715783
 10
644.4779657297
 20
-507.6635270166
 10
644.945317451
 20
-508.4232561293
 10
645.6350041125
 20
-508.8717994363
 10
646.4963161421
 20
-508.9761775567
 10
647.4659251228
 20
-508.7287160346
 10
648.4725400476
 20
-508.1476096077
 10
649.4421490283
 20
-507.2755844296
 10
650.3034610579
 20
-506.1767566073
 10
650.9931477194
 20
-504.9319180305
 10
651.4604994407
 20
-503.632596106
 10
651.6711539423
 20
-502.3743241571
 10
651.6096227419
 20
-501.2496172864
 10
651.2804299532
 20
-500.3411701541
  0
ARC
  5
32F
330
1F
100
AcDbEntity
  8
0
  6
Continuous
 62
     7
370
    25
100
AcDbCircle
 10
654.6091806957
 20
-498.196687694
 30
0.0
 40
3.959720511343359
100
AcDbArc
 50
147.2091342483
 51
212.7908657508
  0
ARC
  5
330
330
1F
100
AcDbEntity
  8
0
  6
Continuous
 62
     7
370
    25
100
AcDbCircle
 10
646.864985673
 20
-494.1139836345
 30
0.0
 40
4.822121022812936
100
AcDbArc
 50
336.300249464
 51
23.699750537
  0
ARC
  5
331
330
1F
100
AcDbEntity
  8
0
  6
Continuous
 62
     7
370
    25
100
AcDbCircle
 10
654.6091806957
 20
-490.0312795751
 30
0.0
 40
3.959720511344181
100
AcDbArc
 50
147.2091342483
 51
212.7908657508
  0
ARC
  5
332
330
1F
100
AcDbEntity
  8
0
  6
Continuous
 62
     7
370
    25
100
AcDbCircle
 10
646.8649856731
 20
-485.9485755157
 30
0.0
 40
4.82212102279993
100
AcDbArc
 50
336.300249464
 51
23.6997505371
  0
ARC
  5
333
330
1F
100
AcDbEntity
  8
0
  6
Continuous
 62
     7
370
    25
100
AcDbCircle
 10
654.1408374889
 20
-481.9823011847
 30
0.0
 40
3.506412576007214
100
AcDbArc
 50
154.3212692745
 51
215.3369578959
  0
ARC
  5
334
330
1F
100
AcDbEntity
  8
0
  6
Continuous
 62
     7
370
    25
100
AcDbCircle
 10
646.3639262688
 20
-477.8445603036
 30
0.0
 40
5.307585764869707
100
AcDbArc
 50
330.4411188956
 51
22.1323001011
  0
ARC
  5
335
330
1F
100
AcDbEntity
  8
0
  6
Continuous
 62
     7
370
    25
100
AcDbCircle
 10
654.140837489
 20
-473.8168930659
 30
0.0
 40
3.506412576034911
100
AcDbArc
 50
154.3212692751
 51
215.3369578957
  0
ARC
  5
336
330
1F
100
AcDbEntity
  8
0
  6
Continuous
 62
     7
370
    25
100
AcDbCircle
 10
646.3639262687
 20
-469.6791521847
 30
0.0
 40
5.307585765026068
100
AcDbArc
 50
330.4411188956
 51
22.1323000997
  0
ARC
  5
337
330
1F
100
AcDbEntity
  8
0
  6
Continuous
 62
     7
370
    25
100
AcDbCircle
 10
654.6091806956
 20
-465.5350552185
 30
0.0
 40
3.959720511252228
100
AcDbArc
 50
147.2091342487
 51
212.7908657521
  0
LWPOLYLINE
  5
338
330
1F
100
AcDbEntity
  8
0
  6
Continuous
 62
     7
370
    25
100
AcDbPolyline
 90
       17
 70
   128
 43
0.0
 10
651.2804299532
 20
-463.3905727583
 10
651.6042274368
 20
-462.1357708261
 10
651.6748053117
 20
-460.9665198962
 10
651.4872470093
 20
-459.9642718758
 10
651.0546181438
 20
-459.1988449796
 10
650.40705634
 20
-458.7235600808
 10
649.5896717986
 20
-458.5715262925
 10
648.659404846
 20
-458.7533345339
 10
647.6810593798
 20
-459.2563197493
 10
646.7227885241
 20
-460.0454431769
 10
645.8513469737
 20
-461.0657332048
 10
645.1274407534
 20
-462.246114783
 10
644.6014983391
 20
-463.5043606254
 10
644.3101577283
 20
-464.7528192957
 10
644.2737141781
 20
-465.9045211477
 10
644.4947064052
 20
-466.8792367716
 10
644.9577397342
 20
-467.6090659035
  0
ARC
  5
339
330
1F
100
AcDbEntity
  8
0
  6
Continuous
 62
     7
370
    25
100
AcDbCircle
 10
640.7264866027
 20
-469.2416469534
 30
0.0
 40
4.535286534174594
100
AcDbArc
 50
330.098060347
 51
21.0985426148
  0
ARC
  5
33A
330
1F
100
AcDbEntity
  8
0
  6
Continuous
 62
     7
370
    25
100
AcDbCircle
 10
648.5014844387
 20
-473.3793875652
 30
0.0
 40
4.277214709205408
100
AcDbArc
 50
153.9729422823
 51
214.0533113697
  0
ARC
  5
33B
330
1F
100
AcDbEntity
  8
0
  6
Continuous
 62
     7
370
    25
100
AcDbCircle
 10
640.7264866027
 20
-477.4070550722
 30
0.0
 40
4.535286534139534
100
AcDbArc
 50
330.0980603458
 51
21.0985426146
  0
LWPOLYLINE
  5
33C
330
1F
100
AcDbEntity
  8
0
  6
Continuous
 62
     7
370
    25
100
AcDbPolyline
 90
       25
 70
   128
 43
0.0
 10
647.9692325852
 20
-531.3408873013
 10
648.9300492702
 20
-530.6401491299
 10
649.8253878859
 20
-529.6950240954
 10
650.5942325852
 20
-528.569920907
 10
651.1841878726
 20
-527.3415134878
 10
651.5550492702
 20
-526.0935157733
 10
651.6815431865
 20
-524.9109767454
 10
651.5550492702
 20
-523.8744844845
 10
651.1841878726
 20
-523.0546742254
 10
650.5942325852
 20
-522.5074146824
 10
649.8253878859
 20
-522.270000689
 10
648.9300492702
 20
-522.3586116165
 10
647.9692325852
 20
-522.7672087765
 10
647.0084159003
 20
-523.467946948
 10
646.1130772846
 20
-524.4130719825
 10
645.3442325852
 20
-525.5381751709
 10
644.7542772978
 20
-526.7665825901
 10
644.3834159003
 20
-528.0145803046
 10
644.256921984
 20
-529.1971193325
 10
644.3834159003
 20
-530.2336115934
 10
644.7542772978
 20
-531.0534218525
 10
645.3442325852
 20
-531.6006813955
 10
646.1130772846
 20
-531.8380953889
 10
647.0084159003
 20
-531.7494844614
 10
647.9692325852
 20
-531.3408873013
  0
LINE
  5
33D
330
1F
100
AcDbEntity
  8
0
  6
Continuous
 62
     7
370
    25
100
AcDbLine
 10
672.7179699268
 20
-533.1804263792
 30
0.0
 11
672.7179699268
 21
-363.825345514
 31
0.0
  0
ARC
  5
33E
330
1F
100
AcDbEntity
  8
0
  6
Continuous
 62
     7
370
    25
100
AcDbCircle
 10
657.3658089131
 20
-532.4818178566
 30
0.0
 40
15.36804807572045
100
AcDbArc
 50
302.60547834
 51
357.3945215143
  0
LINE
  5
33F
330
1F
100
AcDbEntity
  8
0
  6
Continuous
 62
     7
370
    25
100
AcDbLine
 10
665.6469021149
 20
-545.4278750572
 30
0.0
 11
630.2915630556
 21
-565.8380778527
 31
0.0
  0
LWPOLYLINE
  5
340
330
1F
100
AcDbEntity
  8
0
  6
Continuous
 62
     7
370
    25
100
AcDbPolyline
 90
        9
 70
   128
 43
0.0
 10
630.2915630556
 20
-565.8380778527
 10
628.9120661592
 20
-566.4775484325
 10
627.5855825548
 20
-566.7786524617
 10
626.3630882636
 20
-566.7298186814
 10
625.2915630556
 20
-566.3329237463
 10
624.4121850435
 20
-565.6032201063
 10
623.7587482312
 20
-564.5687498629
 10
623.356363829
 20
-563.2692671276
 10
623.2204952437
 20
-561.754710293
  0
LWPOLYLINE
  5
341
330
1F
100
AcDbEntity
  8
0
  6
Continuous
 62
     7
370
    25
100
AcDbPolyline
 90
       13
 70
   128
 43
0.0
 10
505.6106653988
 20
-146.130862821
 10
505.5074405003
 20
-145.9702759203
 10
504.7911698807
 20
-145.2034029526
 10
503.7878547193
 20
-144.5525594762
 10
502.5515839961
 20
-144.0528326314
 10
501.1490053859
 20
-143.7311628218
 10
499.6557322646
 20
-143.6048913501
 10
498.1522673726
 20
-143.680825544
 10
496.7196628915
 20
-143.9548717714
 10
495.4351508995
 20
-144.4122561294
 10
494.3679797708
 20
-145.0283209087
 10
493.575680977
 20
-145.7698538976
 10
493.3226977867
 20
-146.130862821
  0
LINE
  5
342
330
1F
100
AcDbEntity
  8
0
  6
Continuous
 62
     7
370
    25
100
AcDbLine
 10
649.1591096096
 20
-400.9253996991
 30
0.0
 11
651.2804299532
 21
-402.1500118669
 31
0.0
  0
ARC
  5
343
330
1F
100
AcDbEntity
  8
0
  6
Continuous
 62
     7
370
    25
100
AcDbCircle
 10
644.6319660135
 20
-398.944832792
 30
0.0
 40
4.941424330464873
100
AcDbArc
 50
336.3712428151
 51
18.8062871379
  0
LINE
  5
344
330
1F
100
AcDbEntity
  8
0
  6
Continuous
 62
     7
370
    25
100
AcDbLine
 10
649.1591096097
 20
-405.2143646195
 30
0.0
 11
651.2804299532
 21
-406.4389767872
 31
0.0
  0
ARC
  5
345
330
1F
100
AcDbEntity
  8
0
  6
Continuous
 62
     7
370
    25
100
AcDbCircle
 10
652.4878603521
 20
-403.0698821593
 30
0.0
 40
3.959720511251741
100
AcDbArc
 50
147.2091342487
 51
212.7908657521
  0
LINE
  5
346
330
1F
100
AcDbEntity
  8
0
  6
Continuous
 62
     7
370
    25
100
AcDbLine
 10
648.8594050927
 20
-409.8323053273
 30
0.0
 11
650.9807254363
 21
-411.0569174951
 31
0.0
  0
ARC
  5
347
330
1F
100
AcDbEntity
  8
0
  6
Continuous
 62
     7
370
    25
100
AcDbCircle
 10
644.2426059251
 20
-407.2139791255
 30
0.0
 40
5.307585765025228
100
AcDbArc
 50
330.4411188956
 51
22.1323000998
  0
LINE
  5
348
330
1F
100
AcDbEntity
  8
0
  6
Continuous
 62
     7
370
    25
100
AcDbLine
 10
649.1591096096
 20
-413.3797727384
 30
0.0
 11
651.2804299532
 21
-414.6043849061
 31
0.0
  0
ARC
  5
349
330
1F
100
AcDbEntity
  8
0
  6
Continuous
 62
     7
370
    25
100
AcDbCircle
 10
652.0195171452
 20
-411.3517200067
 30
0.0
 40
3.506412575859245
100
AcDbArc
 50
154.3212692742
 51
215.3369578981
  0
LINE
  5
34A
330
1F
100
AcDbEntity
  8
0
  6
Continuous
 62
     7
370
    25
100
AcDbLine
 10
648.8594050927
 20
-417.9977134462
 30
0.0
 11
650.9807254363
 21
-419.2223256139
 31
0.0
  0
ARC
  5
34B
330
1F
100
AcDbEntity
  8
0
  6
Continuous
 62
     7
370
    25
100
AcDbCircle
 10
644.242605925
 20
-415.3793872444
 30
0.0
 40
5.307585765153693
100
AcDbArc
 50
330.4411188965
 51
22.1323000991
  0
LINE
  5
34C
330
1F
100
AcDbEntity
  8
0
  6
Continuous
 62
     7
370
    25
100
AcDbLine
 10
649.1591096096
 20
-421.5451808572
 30
0.0
 11
651.2804299532
 21
-422.769793025
 31
0.0
  0
ARC
  5
34D
330
1F
100
AcDbEntity
  8
0
  6
Continuous
 62
     7
370
    25
100
AcDbCircle
 10
652.0195171452
 20
-419.5171281255
 30
0.0
 40
3.506412575832066
100
AcDbArc
 50
154.3212692736
 51
215.3369578982
  0
LINE
  5
34E
330
1F
100
AcDbEntity
  8
0
  6
Continuous
 62
     7
370
    25
100
AcDbLine
 10
649.1591096096
 20
-425.4216240557
 30
0.0
 11
651.2804299532
 21
-426.6462362234
 31
0.0
  0
ARC
  5
34F
330
1F
100
AcDbEntity
  8
0
  6
Continuous
 62
     7
370
    25
100
AcDbCircle
 10
644.7436653292
 20
-423.4834024565
 30
0.0
 40
4.822121023131611
100
AcDbArc
 50
336.300249465
 51
23.6997505348
  0
LINE
  5
350
330
1F
100
AcDbEntity
  8
0
  6
Continuous
 62
     7
370
    25
100
AcDbLine
 10
649.1591096096
 20
-429.7105889761
 30
0.0
 11
651.2804299532
 21
-430.9352011438
 31
0.0
  0
ARC
  5
351
330
1F
100
AcDbEntity
  8
0
  6
Continuous
 62
     7
370
    25
100
AcDbCircle
 10
652.487860352
 20
-427.5661065159
 30
0.0
 40
3.959720511197663
100
AcDbArc
 50
147.2091342476
 51
212.7908657526
  0
LINE
  5
352
330
1F
100
AcDbEntity
  8
0
  6
Continuous
 62
     7
370
    25
100
AcDbLine
 10
649.1591096096
 20
-433.5870321746
 30
0.0
 11
651.2804299532
 21
-434.8116443423
 31
0.0
  0
ARC
  5
353
330
1F
100
AcDbEntity
  8
0
  6
Continuous
 62
     7
370
    25
100
AcDbCircle
 10
644.7436653291
 20
-431.6488105753
 30
0.0
 40
4.822121023143977
100
AcDbArc
 50
336.3002494651
 51
23.6997505347
  0
LINE
  5
354
330
1F
100
AcDbEntity
  8
0
  6
Continuous
 62
     7
370
    25
100
AcDbLine
 10
649.1591096097
 20
-437.8759970949
 30
0.0
 11
651.2804299532
 21
-439.1006092626
 31
0.0
  0
LWPOLYLINE
  5
355
330
1F
100
AcDbEntity
  8
0
  6
Continuous
 62
     7
370
    25
100
AcDbPolyline
 90
       10
 70
   128
 43
0.0
 10
644.507557897
 20
-446.4971681135
 10
645.3446047793
 20
-446.2635429753
 10
646.3512197041
 20
-445.6824365484
 10
647.3208286848
 20
-444.8104113704
 10
648.1821407144
 20
-443.7115835481
 10
648.8718273759
 20
-442.4667449713
 10
649.3391790972
 20
-441.1674230468
 10
649.5498335988
 20
-439.9091510979
 10
649.4883023984
 20
-438.7844442272
 10
649.1591096097
 20
-437.8759970949
  0
ARC
  5
356
330
1F
100
AcDbEntity
  8
0
  6
Continuous
 62
     7
370
    25
100
AcDbCircle
 10
652.4878603521
 20
-435.7315146347
 30
0.0
 40
3.959720511242226
100
AcDbArc
 50
147.2091342486
 51
212.7908657523
  0
LINE
  5
357
330
1F
100
AcDbEntity
  8
0
  6
Continuous
 62
     7
370
    25
100
AcDbLine
 10
649.1591096096
 20
-462.1659605906
 30
0.0
 11
651.2804299532
 21
-463.3905727583
 31
0.0
  0
ARC
  5
358
330
1F
100
AcDbEntity
  8
0
  6
Continuous
 62
     7
370
    25
100
AcDbCircle
 10
644.6319660135
 20
-460.1853936834
 30
0.0
 40
4.941424330464514
100
AcDbArc
 50
336.3712428151
 51
18.8062871379
  0
LINE
  5
359
330
1F
100
AcDbEntity
  8
0
  6
Continuous
 62
     7
370
    25
100
AcDbLine
 10
649.1591096097
 20
-466.4549255109
 30
0.0
 11
651.2804299532
 21
-467.6795376786
 31
0.0
  0
ARC
  5
35A
330
1F
100
AcDbEntity
  8
0
  6
Continuous
 62
     7
370
    25
100
AcDbCircle
 10
652.4878603521
 20
-464.3104430507
 30
0.0
 40
3.959720511252024
100
AcDbArc
 50
147.2091342487
 51
212.7908657521
  0
LWPOLYLINE
  5
35B
330
1F
100
AcDbEntity
  8
0
  6
Continuous
 62
     7
370
    25
100
AcDbPolyline
 90
       13
 70
   128
 43
0.0
 10
438.0819677955
 20
-107.1473754814
 10
437.9787428969
 20
-106.9867885808
 10
437.2624722773
 20
-106.219915613
 10
436.259157116
 20
-105.5690721366
 10
435.0228863928
 20
-105.0693452919
 10
433.6203077826
 20
-104.7476754823
 10
432.1270346613
 20
-104.6214040106
 10
430.6235697693
 20
-104.6973382045
 10
429.1909652882
 20
-104.9713844319
 10
427.9064532962
 20
-105.4287687898
 10
426.8392821675
 20
-106.0448335691
 10
426.0469833737
 20
-106.7863665581
 10
425.7940001834
 20
-107.1473754814
  0
LINE
  5
35C
330
1F
100
AcDbEntity
  8
0
  6
Continuous
 62
     7
370
    25
100
AcDbLine
 10
648.8594050927
 20
-471.0728662188
 30
0.0
 11
650.9807254363
 21
-472.2974783865
 31
0.0
  0
ARC
  5
35D
330
1F
100
AcDbEntity
  8
0
  6
Continuous
 62
     7
370
    25
100
AcDbCircle
 10
644.2426059251
 20
-468.454540017
 30
0.0
 40
5.307585765025276
100
AcDbArc
 50
330.4411188956
 51
22.1323000997
  0
LINE
  5
35E
330
1F
100
AcDbEntity
  8
0
  6
Continuous
 62
     7
370
    25
100
AcDbLine
 10
649.1591096096
 20
-474.6203336298
 30
0.0
 11
651.2804299532
 21
-475.8449457975
 31
0.0
  0
ARC
  5
35F
330
1F
100
AcDbEntity
  8
0
  6
Continuous
 62
     7
370
    25
100
AcDbCircle
 10
652.0195171454
 20
-472.5922808981
 30
0.0
 40
3.506412576035433
100
AcDbArc
 50
154.3212692752
 51
215.3369578957
  0
LINE
  5
360
330
1F
100
AcDbEntity
  8
0
  6
Continuous
 62
     7
370
    25
100
AcDbLine
 10
648.8594050927
 20
-479.2382743376
 30
0.0
 11
650.9807254363
 21
-480.4628865053
 31
0.0
  0
ARC
  5
361
330
1F
100
AcDbEntity
  8
0
  6
Continuous
 62
     7
370
    25
100
AcDbCircle
 10
644.2426059252
 20
-476.6199481359
 30
0.0
 40
5.307585764869354
100
AcDbArc
 50
330.4411188956
 51
22.1323001011
  0
LINE
  5
362
330
1F
100
AcDbEntity
  8
0
  6
Continuous
 62
     7
370
    25
100
AcDbLine
 10
649.1591096096
 20
-482.7857417487
 30
0.0
 11
651.2804299532
 21
-484.0103539164
 31
0.0
  0
ARC
  5
363
330
1F
100
AcDbEntity
  8
0
  6
Continuous
 62
     7
370
    25
100
AcDbCircle
 10
652.0195171454
 20
-480.757689017
 30
0.0
 40
3.506412576008159
100
AcDbArc
 50
154.3212692746
 51
215.3369578959
  0
LINE
  5
364
330
1F
100
AcDbEntity
  8
0
  6
Continuous
 62
     7
370
    25
100
AcDbLine
 10
649.1591096096
 20
-486.6621849471
 30
0.0
 11
651.2804299532
 21
-487.8867971149
 31
0.0
  0
ARC
  5
365
330
1F
100
AcDbEntity
  8
0
  6
Continuous
 62
     7
370
    25
100
AcDbCircle
 10
644.7436653295
 20
-484.7239633479
 30
0.0
 40
4.822121022801247
100
AcDbArc
 50
336.300249464
 51
23.6997505371
  0
LINE
  5
366
330
1F
100
AcDbEntity
  8
0
  6
Continuous
 62
     7
370
    25
100
AcDbLine
 10
649.1591096096
 20
-490.9511498675
 30
0.0
 11
651.2804299532
 21
-492.1757620353
 31
0.0
  0
ARC
  5
367
330
1F
100
AcDbEntity
  8
0
  6
Continuous
 62
     7
370
    25
100
AcDbCircle
 10
652.4878603521
 20
-488.8066674074
 30
0.0
 40
3.959720511345294
100
AcDbArc
 50
147.2091342483
 51
212.7908657508
  0
LINE
  5
368
330
1F
100
AcDbEntity
  8
0
  6
Continuous
 62
     7
370
    25
100
AcDbLine
 10
649.1591096096
 20
-494.827593066
 30
0.0
 11
651.2804299532
 21
-496.0522052337
 31
0.0
  0
ARC
  5
369
330
1F
100
AcDbEntity
  8
0
  6
Continuous
 62
     7
370
    25
100
AcDbCircle
 10
644.7436653295
 20
-492.8893714668
 30
0.0
 40
4.822121022812488
100
AcDbArc
 50
336.300249464
 51
23.699750537
  0
LINE
  5
36A
330
1F
100
AcDbEntity
  8
0
  6
Continuous
 62
     7
370
    25
100
AcDbLine
 10
649.1591096096
 20
-499.1165579864
 30
0.0
 11
651.2804299532
 21
-500.3411701541
 31
0.0
  0
LWPOLYLINE
  5
36B
330
1F
100
AcDbEntity
  8
0
  6
Continuous
 62
     7
370
    25
100
AcDbPolyline
 90
       10
 70
   128
 43
0.0
 10
644.5075578969
 20
-507.737729005
 10
645.3446047793
 20
-507.5041038668
 10
646.3512197041
 20
-506.9229974399
 10
647.3208286847
 20
-506.0509722619
 10
648.1821407143
 20
-504.9521444396
 10
648.8718273759
 20
-503.7073058628
 10
649.3391790972
 20
-502.4079839383
 10
649.5498335988
 20
-501.1497119894
 10
649.4883023984
 20
-500.0250051187
 10
649.1591096096
 20
-499.1165579864
  0
LINE
  5
36C
330
1F
100
AcDbEntity
  8
0
  6
Continuous
 62
     7
370
    25
100
AcDbLine
 10
381.5707679655
 20
-91.7297073397
 30
0.0
 11
381.5707679655
 21
-89.2800849041
 31
0.0
  0
LWPOLYLINE
  5
36D
330
1F
100
AcDbEntity
  8
0
  6
Continuous
 62
     7
370
    25
100
AcDbPolyline
 90
        3
 70
   128
 43
0.0
 10
382.7559822967
 20
-92.7500184294
 10
382.4448203898
 20
-92.387288439
 10
381.5707679655
 20
-91.7297073397
  0
ARC
  5
36E
330
1F
100
AcDbEntity
  8
0
  6
Continuous
 62
     7
370
    25
100
AcDbCircle
 10
652.4878603521
 20
-496.9720755262
 30
0.0
 40
3.959720511343772
100
AcDbArc
 50
147.2091342483
 51
212.7908657508
  0
LINE
  5
36F
330
1F
100
AcDbEntity
  8
0
  6
Continuous
 62
     7
370
    25
100
AcDbLine
 10
349.7509628122
 20
-73.3605248237
 30
0.0
 11
349.7509628122
 21
-70.9109023881
 31
0.0
  0
LINE
  5
370
330
1F
100
AcDbEntity
  8
0
  6
Continuous
 62
     7
370
    25
100
AcDbLine
 10
381.5707679655
 20
-91.7297073397
 30
0.0
 11
349.7509628122
 21
-73.3605248237
 31
0.0
  0
ARC
  5
371
330
1F
100
AcDbEntity
  8
0
  6
Continuous
 62
     7
370
    25
100
AcDbCircle
 10
642.2291417103
 20
-523.8354662562
 30
0.0
 40
7.248728185950314
100
AcDbArc
 50
299.9489604303
 51
12.3700256114
  0
LWPOLYLINE
  5
372
330
1F
100
AcDbEntity
  8
0
  6
Continuous
 62
     7
370
    25
100
AcDbPolyline
 90
        3
 70
   128
 43
0.0
 10
644.507557897
 20
-530.6008717378
 10
644.8870955567
 20
-530.5248722937
 10
645.8479122417
 20
-530.1162751336
  0
ARC
  5
373
330
1F
100
AcDbEntity
  8
0
  6
Continuous
 62
     7
370
    25
100
AcDbCircle
 10
625.9991939237
 20
-561.0709654988
 30
0.0
 40
4.929779299977854
100
AcDbArc
 50
173.7011524813
 51
234.9866671254
  0
LINE
  5
374
330
1F
100
AcDbEntity
  8
0
  6
Continuous
 62
     7
370
    25
100
AcDbLine
 10
410.8874151135
 20
-74.8055671817
 30
0.0
 11
410.8874151135
 21
-72.355944746
 31
0.0
  0
LWPOLYLINE
  5
375
330
1F
100
AcDbEntity
  8
0
  6
Continuous
 62
     7
370
    25
100
AcDbPolyline
 90
        3
 70
   128
 43
0.0
 10
412.0726294447
 20
-75.8258782713
 10
411.7614675378
 20
-75.4631482809
 10
410.8874151135
 20
-74.8055671817
  0
ARC
  5
376
330
1F
100
AcDbEntity
  8
0
  6
Continuous
 62
     7
370
    25
100
AcDbCircle
 10
345.9542715131
 20
-79.8884036168
 30
0.0
 40
7.55169294641145
100
AcDbArc
 50
59.8172123575
 51
133.1709484014
  0
LINE
  5
377
330
1F
100
AcDbEntity
  8
0
  6
Continuous
 62
     7
370
    25
100
AcDbLine
 10
379.0676099601
 20
-56.4363846656
 30
0.0
 11
379.0676099601
 21
-53.98676223
 31
0.0
  0
LINE
  5
378
330
1F
100
AcDbEntity
  8
0
  6
Continuous
 62
     7
370
    25
100
AcDbLine
 10
410.8874151135
 20
-74.8055671817
 30
0.0
 11
379.0676099601
 21
-56.4363846656
 31
0.0
  0
SPLINE
  5
379
330
1F
100
AcDbEntity
  8
0
  6
Continuous
 62
     7
370
    25
100
AcDbSpline
210
0.0
220
0.0
230
1.0
 70
     8
 71
     3
 72
     8
 73
     4
 74
     0
 42
0.000000001
 43
0.00000001
 40
0.0
 40
0.0
 40
0.0
 40
0.0
 40
1.0
 40
1.0
 40
1.0
 40
1.0
 10
322.164573935716
 20
-71.11117023006314
 30
0.0
 10
322.1458558467508
 20
-71.10531025268297
 30
0.0
 10
322.1271377654674
 20
-71.09953219600817
 30
0.0
 10
322.1084203892059
 20
-71.09383645865492
 30
0.0
  0
ARC
  5
37A
330
1F
100
AcDbEntity
  8
0
  6
Continuous
 62
     7
370
    25
100
AcDbCircle
 10
369.8222259843
 20
-45.0622430579
 30
0.0
 40
3.105921837476474
100
AcDbArc
 50
54.9507676152
 51
114.4953416953
  0
SPLINE
  5
37B
330
1F
100
AcDbEntity
  8
0
  6
Continuous
 62
     7
370
    25
100
AcDbSpline
210
0.0
220
0.0
230
1.0
 70
     8
 71
     3
 72
     8
 73
     4
 74
     0
 42
0.000000001
 43
0.00000001
 40
0.0
 40
0.0
 40
0.0
 40
0.0
 40
1.0
 40
1.0
 40
1.0
 40
1.0
 10
371.6058950722644
 20
-42.51955254486012
 30
0.0
 10
371.6160452533119
 20
-42.53019401873698
 30
0.0
 10
371.6261961393895
 20
-42.54091781193164
 30
0.0
 10
371.6363470331419
 20
-42.55172352583519
 30
0.0
  0
ARC
  5
37C
330
1F
100
AcDbEntity
  8
0
  6
Continuous
 62
     7
370
    25
100
AcDbCircle
 10
320.4242017119
 20
-73.221758003
 30
0.0
 40
2.713787510455042
100
AcDbArc
 50
51.6389022329
 51
189.3472924144
  0
LINE
  5
37D
330
1F
100
AcDbEntity
  8
0
  6
Continuous
 62
     7
370
    25
100
AcDbLine
 10
317.7464478961
 20
-73.6625268246
 30
0.0
 11
319.0315208509
 21
-74.4043836505
 31
0.0
  0
LINE
  5
37E
330
1F
100
AcDbEntity
  8
0
  6
Continuous
 62
     7
370
    25
100
AcDbLine
 10
319.8677682397
 20
-202.0054723782
 30
0.0
 11
319.8677682397
 21
-87.1344249219
 31
0.0
  0
LINE
  5
37F
330
1F
100
AcDbEntity
  8
0
  6
Continuous
 62
     7
370
    25
100
AcDbLine
 10
369.3652429227
 20
-84.683607713
 30
0.0
 11
369.3652429227
 21
-91.2144745074
 31
0.0
  0
LINE
  5
380
330
1F
100
AcDbEntity
  8
0
  6
Continuous
 62
     7
370
    25
100
AcDbLine
 10
369.3652429227
 20
-115.7087088357
 30
0.0
 11
369.3652429227
 21
-173.4311884644
 31
0.0
  0
LINE
  5
381
330
1F
100
AcDbEntity
  8
0
  6
Continuous
 62
     7
370
    25
100
AcDbLine
 10
369.3652429227
 20
-173.4311884644
 30
0.0
 11
319.8677682397
 21
-202.0054723782
 31
0.0
  0
LINE
  5
382
330
1F
100
AcDbEntity
  8
0
  6
Continuous
 62
     7
370
    25
100
AcDbLine
 10
317.7464478961
 20
-200.7808602105
 30
0.0
 11
319.8677682397
 21
-202.0054723782
 31
0.0
  0
LINE
  5
383
330
1F
100
AcDbEntity
  8
0
  6
Continuous
 62
     7
370
    25
100
AcDbLine
 10
317.7464478961
 20
-200.7808602105
 30
0.0
 11
317.7464478961
 21
-83.6046164656
 31
0.0
  0
LINE
  5
384
330
1F
100
AcDbEntity
  8
0
  6
Continuous
 62
     7
370
    25
100
AcDbLine
 10
317.7464478961
 20
-78.5334061787
 30
0.0
 11
317.7464478961
 21
-73.6625268246
 31
0.0
  0
ARC
  5
385
330
1F
100
AcDbEntity
  8
0
  6
Continuous
 62
     7
370
    25
100
AcDbCircle
 10
375.2709186611
 20
-62.9642634587
 30
0.0
 40
7.551692946411817
100
AcDbArc
 50
59.8172123575
 51
133.1709484014
  0
LINE
  5
386
330
1F
100
AcDbEntity
  8
0
  6
Continuous
 62
     7
370
    25
100
AcDbLine
 10
370.7362898142
 20
-178.0449428167
 30
0.0
 11
321.2388151311
 21
-206.6192267305
 31
0.0
  0
LINE
  5
387
330
1F
100
AcDbEntity
  8
0
  6
Continuous
 62
     7
370
    25
100
AcDbLine
 10
370.7362898142
 20
-178.0449428167
 30
0.0
 11
375.8418210504
 21
-186.8879822915
 31
0.0
  0
LINE
  5
388
330
1F
100
AcDbEntity
  8
0
  6
Continuous
 62
     7
370
    25
100
AcDbLine
 10
326.3443463673
 20
-215.4622662053
 30
0.0
 11
375.8418210504
 21
-186.8879822915
 31
0.0
  0
LINE
  5
389
330
1F
100
AcDbEntity
  8
0
  6
Continuous
 62
     7
370
    25
100
AcDbLine
 10
326.3443463673
 20
-215.4622662053
 30
0.0
 11
321.2388151311
 21
-206.6192267305
 31
0.0
  0
LINE
  5
38A
330
1F
100
AcDbEntity
  8
0
  6
Continuous
 62
     7
370
    25
100
AcDbLine
 10
324.8443463673
 20
-216.3284792728
 30
0.0
 11
319.7388151311
 21
-207.485439798
 31
0.0
  0
LINE
  5
38B
330
1F
100
AcDbEntity
  8
0
  6
Continuous
 62
     7
370
    25
100
AcDbLine
 10
319.7388151311
 20
-207.485439798
 30
0.0
 11
321.2388151311
 21
-206.6192267305
 31
0.0
  0
LINE
  5
38C
330
1F
100
AcDbEntity
  8
0
  6
Continuous
 62
     7
370
    25
100
AcDbLine
 10
326.3443463673
 20
-215.4622662053
 30
0.0
 11
324.8443463673
 21
-216.3284792728
 31
0.0
  0
ARC
  5
38D
330
1F
100
AcDbEntity
  8
0
  6
Continuous
 62
     7
370
    25
100
AcDbCircle
 10
329.4135775332
 20
-201.6793815978
 30
0.0
 40
9.551377401473081
100
AcDbArc
 50
181.956498643
 51
211.1437277994
  0
ARC
  5
38E
330
1F
100
AcDbEntity
  8
0
  6
Continuous
 62
     7
370
    25
100
AcDbCircle
 10
331.6181526399
 20
-200.306994152
 30
0.0
 40
13.8797961634703
100
AcDbArc
 50
181.956498643
 51
211.1437277994
  0
ARC
  5
38F
330
1F
100
AcDbEntity
  8
0
  6
Continuous
 62
     7
370
    25
100
AcDbCircle
 10
378.9110522163
 20
-173.105097684
 30
0.0
 40
9.551377401472795
100
AcDbArc
 50
181.956498643
 51
211.1437277994
  0
LINE
  5
390
330
1F
100
AcDbEntity
  8
0
  6
Continuous
 62
     7
370
    25
100
AcDbLine
 10
328.3367136024
 20
-222.1668457929
 30
0.0
 11
377.8341882854
 21
-193.5925618791
 31
0.0
  0
ARC
  5
391
330
1F
100
AcDbEntity
  8
0
  6
Continuous
 62
     7
370
    25
100
AcDbCircle
 10
314.4650088586
 20
-222.6407118514
 30
0.0
 40
13.87979616347224
100
AcDbArc
 50
1.956498643
 51
31.1437277994
  0
ARC
  5
392
330
1F
100
AcDbEntity
  8
0
  6
Continuous
 62
     7
370
    25
100
AcDbCircle
 10
363.9624835416
 20
-194.0664279376
 30
0.0
 40
13.879796163471
100
AcDbArc
 50
1.956498643
 51
31.1437277994
  0
LINE
  5
393
330
1F
100
AcDbEntity
  8
0
  6
Continuous
 62
     7
370
    25
100
AcDbLine
 10
328.3367136024
 20
-222.1668457929
 30
0.0
 11
326.2153932588
 21
-220.9422336252
 31
0.0
  0
ARC
  5
394
330
1F
100
AcDbEntity
  8
0
  6
Continuous
 62
     7
370
    25
100
AcDbCircle
 10
316.6695839653
 20
-221.2683244055
 30
0.0
 40
9.551377401474342
100
AcDbArc
 50
1.956498643
 51
31.1437277994
  0
LWPOLYLINE
  5
395
330
1F
100
AcDbEntity
  8
0
  6
Continuous
 62
     7
370
    25
100
AcDbPolyline
 90
       25
 70
   128
 43
0.0
 10
353.0854509439
 20
-352.5344251417
 10
354.0462676288
 20
-352.1258279816
 10
354.9416062445
 20
-352.0372170541
 10
355.7104509439
 20
-352.2746310475
 10
356.3004062313
 20
-352.8218905906
 10
356.6712676288
 20
-353.6417008497
 10
356.7977615451
 20
-354.6781931105
 10
356.6712676288
 20
-355.8607321385
 10
356.3004062313
 20
-357.108729853
 10
355.7104509439
 20
-358.3371372721
 10
354.9416062445
 20
-359.4622404605
 10
354.0462676288
 20
-360.407365495
 10
353.0854509439
 20
-361.1081036665
 10
352.1246342589
 20
-361.5167008266
 10
351.2292956433
 20
-361.605311754
 10
350.4604509439
 20
-361.3678977606
 10
349.8704956565
 20
-360.8206382176
 10
349.4996342589
 20
-360.0008279585
 10
349.3731403427
 20
-358.9643356976
 10
349.4996342589
 20
-357.7817966697
 10
349.8704956565
 20
-356.5337989552
 10
350.4604509439
 20
-355.305391536
 10
351.2292956433
 20
-354.1802883477
 10
352.1246342589
 20
-353.2351633132
 10
353.0854509439
 20
-352.5344251417
  0
ARC
  5
396
330
1F
100
AcDbEntity
  8
0
  6
Continuous
 62
     7
370
    25
100
AcDbCircle
 10
345.8427049614
 20
-307.1742714374
 30
0.0
 40
4.535286534089582
100
AcDbArc
 50
330.0980603458
 51
21.0985426151
  0
ARC
  5
397
330
1F
100
AcDbEntity
  8
0
  6
Continuous
 62
     7
370
    25
100
AcDbCircle
 10
353.6177027974
 20
-311.3120120491
 30
0.0
 40
4.277214709179653
100
AcDbArc
 50
153.9729422823
 51
214.0533113701
  0
ARC
  5
398
330
1F
100
AcDbEntity
  8
0
  6
Continuous
 62
     7
370
    25
100
AcDbCircle
 10
345.8427049612
 20
-315.3396795562
 30
0.0
 40
4.535286534295914
100
AcDbArc
 50
330.0980603466
 51
21.0985426134
  0
ARC
  5
399
330
1F
100
AcDbEntity
  8
0
  6
Continuous
 62
     7
370
    25
100
AcDbCircle
 10
354.189697856
 20
-319.5388189863
 30
0.0
 40
4.822121022815353
100
AcDbArc
 50
156.300249464
 51
203.699750537
  0
ARC
  5
39A
330
1F
100
AcDbEntity
  8
0
  6
Continuous
 62
     7
370
    25
100
AcDbCircle
 10
346.4455028334
 20
-323.6215230458
 30
0.0
 40
3.959720511344153
100
AcDbArc
 50
327.2091342484
 51
32.7908657507
  0
ARC
  5
39B
330
1F
100
AcDbEntity
  8
0
  6
Continuous
 62
     7
370
    25
100
AcDbCircle
 10
354.189697856
 20
-327.7042271052
 30
0.0
 40
4.822121022814001
100
AcDbArc
 50
156.3002494639
 51
203.699750537
  0
ARC
  5
39C
330
1F
100
AcDbEntity
  8
0
  6
Continuous
 62
     7
370
    25
100
AcDbCircle
 10
346.4455028334
 20
-331.7869311646
 30
0.0
 40
3.959720511338713
100
AcDbArc
 50
327.2091342484
 51
32.7908657508
  0
LWPOLYLINE
  5
39D
330
1F
100
AcDbEntity
  8
0
  6
Continuous
 62
     7
370
    25
100
AcDbPolyline
 90
       16
 70
   128
 43
0.0
 10
356.3966483118
 20
-330.1083865192
 10
356.7258411006
 20
-331.0168336515
 10
356.787372301
 20
-332.1415405222
 10
356.5767177994
 20
-333.3998124711
 10
356.1093660781
 20
-334.6991343956
 10
355.4196794165
 20
-335.9439729724
 10
354.5583673869
 20
-337.0428007947
 10
353.5887584063
 20
-337.9148259727
 10
352.5821434815
 20
-338.4959323996
 10
351.6125345008
 20
-338.7433939217
 10
350.7512224712
 20
-338.6390158014
 10
350.0615358097
 20
-338.1904724943
 10
349.5941840884
 20
-337.4307433817
 10
349.3835295868
 20
-336.4156879434
 10
349.4450607872
 20
-335.2199386608
 10
349.7742535759
 20
-333.9314136248
  0
ARC
  5
39E
330
1F
100
AcDbEntity
  8
0
  6
Continuous
 62
     7
370
    25
100
AcDbCircle
 10
359.7253990542
 20
-327.963904059
 30
0.0
 40
3.959720511241577
100
AcDbArc
 50
147.2091342486
 51
212.7908657523
  0
ARC
  5
39F
330
1F
100
AcDbEntity
  8
0
  6
Continuous
 62
     7
370
    25
100
AcDbCircle
 10
351.9812040315
 20
-323.8811999996
 30
0.0
 40
4.822121022961079
100
AcDbArc
 50
336.3002494635
 51
23.6997505355
  0
ARC
  5
3A0
330
1F
100
AcDbEntity
  8
0
  6
Continuous
 62
     7
370
    25
100
AcDbCircle
 10
359.7253990542
 20
-319.7984959402
 30
0.0
 40
3.959720511241627
100
AcDbArc
 50
147.2091342486
 51
212.7908657523
  0
ARC
  5
3A1
330
1F
100
AcDbEntity
  8
0
  6
Continuous
 62
     7
370
    25
100
AcDbCircle
 10
351.9812040315
 20
-315.7157918807
 30
0.0
 40
4.822121022962189
100
AcDbArc
 50
336.3002494635
 51
23.6997505355
  0
ARC
  5
3A2
330
1F
100
AcDbEntity
  8
0
  6
Continuous
 62
     7
370
    25
100
AcDbCircle
 10
359.2570558476
 20
-311.7495175498
 30
0.0
 40
3.506412575996463
100
AcDbArc
 50
154.3212692745
 51
215.3369578961
  0
ARC
  5
3A3
330
1F
100
AcDbEntity
  8
0
  6
Continuous
 62
     7
370
    25
100
AcDbCircle
 10
351.4801446274
 20
-307.6117766688
 30
0.0
 40
5.30758576491311
100
AcDbArc
 50
330.441118896
 51
22.1323001008
  0
ARC
  5
3A4
330
1F
100
AcDbEntity
  8
0
  6
Continuous
 62
     7
370
    25
100
AcDbCircle
 10
359.2570558476
 20
-303.584109431
 30
0.0
 40
3.50641257599684
100
AcDbArc
 50
154.3212692745
 51
215.3369578961
  0
ARC
  5
3A5
330
1F
100
AcDbEntity
  8
0
  6
Continuous
 62
     7
370
    25
100
AcDbCircle
 10
351.4801446274
 20
-299.4463685499
 30
0.0
 40
5.307585764912829
100
AcDbArc
 50
330.441118896
 51
22.1323001008
  0
ARC
  5
3A6
330
1F
100
AcDbEntity
  8
0
  6
Continuous
 62
     7
370
    25
100
AcDbCircle
 10
359.7253990542
 20
-295.3022715836
 30
0.0
 40
3.959720511241658
100
AcDbArc
 50
147.2091342486
 51
212.7908657523
  0
LWPOLYLINE
  5
3A7
330
1F
100
AcDbEntity
  8
0
  6
Continuous
 62
     7
370
    25
100
AcDbPolyline
 90
       17
 70
   128
 43
0.0
 10
350.0739580928
 20
-297.3762822687
 10
349.6109247638
 20
-296.6464531367
 10
349.3899325368
 20
-295.6717375128
 10
349.4263760869
 20
-294.5200356608
 10
349.7177166977
 20
-293.2715769905
 10
350.243659112
 20
-292.0133311481
 10
350.9675653323
 20
-290.8329495699
 10
351.8390068827
 20
-289.812659542
 10
352.7972777384
 20
-289.0235361144
 10
353.7756232046
 20
-288.520550899
 10
354.7058901572
 20
-288.3387426576
 10
355.5232746986
 20
-288.4907764459
 10
356.1708365024
 20
-288.9660613448
 10
356.603465368
 20
-289.7314882409
 10
356.7910236703
 20
-290.7337362614
 10
356.7204457954
 20
-291.9029871912
 10
356.3966483118
 20
-293.1577891234
  0
ARC
  5
3A8
330
1F
100
AcDbEntity
  8
0
  6
Continuous
 62
     7
370
    25
100
AcDbCircle
 10
345.8427049615
 20
-299.0088633185
 30
0.0
 40
4.535286534033514
100
AcDbArc
 50
330.098060346
 51
21.0985426157
  0
ARC
  5
3A9
330
1F
100
AcDbEntity
  8
0
  6
Continuous
 62
     7
370
    25
100
AcDbCircle
 10
353.6177027974
 20
-303.1466039303
 30
0.0
 40
4.277214709180519
100
AcDbArc
 50
153.9729422823
 51
214.0533113701
  0
ARC
  5
3AA
330
1F
100
AcDbEntity
  8
0
  6
Continuous
 62
     7
370
    25
100
AcDbCircle
 10
345.8427049614
 20
-245.9337105459
 30
0.0
 40
4.535286534088968
100
AcDbArc
 50
330.0980603458
 51
21.0985426151
  0
ARC
  5
3AB
330
1F
100
AcDbEntity
  8
0
  6
Continuous
 62
     7
370
    25
100
AcDbCircle
 10
353.6177027974
 20
-250.0714511577
 30
0.0
 40
4.27721470918135
100
AcDbArc
 50
153.9729422824
 51
214.0533113701
  0
ARC
  5
3AC
330
1F
100
AcDbEntity
  8
0
  6
Continuous
 62
     7
370
    25
100
AcDbCircle
 10
345.8427049614
 20
-254.0991186648
 30
0.0
 40
4.535286534086933
100
AcDbArc
 50
330.0980603458
 51
21.0985426151
  0
ARC
  5
3AD
330
1F
100
AcDbEntity
  8
0
  6
Continuous
 62
     7
370
    25
100
AcDbCircle
 10
354.1896978564
 20
-258.2982580949
 30
0.0
 40
4.822121023108905
100
AcDbArc
 50
156.3002494651
 51
203.6997505351
  0
ARC
  5
3AE
330
1F
100
AcDbEntity
  8
0
  6
Continuous
 62
     7
370
    25
100
AcDbCircle
 10
346.4455028336
 20
-262.3809621544
 30
0.0
 40
3.959720511211471
100
AcDbArc
 50
327.2091342475
 51
32.7908657523
  0
ARC
  5
3AF
330
1F
100
AcDbEntity
  8
0
  6
Continuous
 62
     7
370
    25
100
AcDbCircle
 10
354.1896978564
 20
-266.4636662138
 30
0.0
 40
4.822121023111788
100
AcDbArc
 50
156.3002494651
 51
203.699750535
  0
ARC
  5
3B0
330
1F
100
AcDbEntity
  8
0
  6
Continuous
 62
     7
370
    25
100
AcDbCircle
 10
346.4455028334
 20
-270.5463702732
 30
0.0
 40
3.959720511338716
100
AcDbArc
 50
327.2091342484
 51
32.7908657508
  0
LWPOLYLINE
  5
3B1
330
1F
100
AcDbEntity
  8
0
  6
Continuous
 62
     7
370
    25
100
AcDbPolyline
 90
       16
 70
   128
 43
0.0
 10
356.3966483118
 20
-268.8678256278
 10
356.7258411006
 20
-269.7762727601
 10
356.787372301
 20
-270.9009796308
 10
356.5767177994
 20
-272.1592515797
 10
356.109366078
 20
-273.4585735042
 10
355.4196794165
 20
-274.703412081
 10
354.5583673869
 20
-275.8022399033
 10
353.5887584063
 20
-276.6742650813
 10
352.5821434815
 20
-277.2553715082
 10
351.6125345008
 20
-277.5028330303
 10
350.7512224712
 20
-277.3984549099
 10
350.0615358097
 20
-276.9499116029
 10
349.5941840884
 20
-276.1901824903
 10
349.3835295868
 20
-275.1751270519
 10
349.4450607872
 20
-273.9793777694
 10
349.7742535759
 20
-272.6908527334
  0
ARC
  5
3B2
330
1F
100
AcDbEntity
  8
0
  6
Continuous
 62
     7
370
    25
100
AcDbCircle
 10
359.7253990544
 20
-266.7233431676
 30
0.0
 40
3.959720511343745
100
AcDbArc
 50
147.2091342483
 51
212.7908657508
  0
ARC
  5
3B3
330
1F
100
AcDbEntity
  8
0
  6
Continuous
 62
     7
370
    25
100
AcDbCircle
 10
351.9812040317
 20
-262.6406391082
 30
0.0
 40
4.822121022815617
100
AcDbArc
 50
336.300249464
 51
23.699750537
  0
ARC
  5
3B4
330
1F
100
AcDbEntity
  8
0
  6
Continuous
 62
     7
370
    25
100
AcDbCircle
 10
359.7253990544
 20
-258.5579350488
 30
0.0
 40
3.959720511339729
100
AcDbArc
 50
147.2091342484
 51
212.7908657508
  0
ARC
  5
3B5
330
1F
100
AcDbEntity
  8
0
  6
Continuous
 62
     7
370
    25
100
AcDbCircle
 10
351.9812040317
 20
-254.4752309894
 30
0.0
 40
4.822121022821093
100
AcDbArc
 50
336.300249464
 51
23.699750537
  0
ARC
  5
3B6
330
1F
100
AcDbEntity
  8
0
  6
Continuous
 62
     7
370
    25
100
AcDbCircle
 10
359.2570558476
 20
-250.5089566584
 30
0.0
 40
3.506412575997936
100
AcDbArc
 50
154.3212692745
 51
215.3369578961
  0
ARC
  5
3B7
330
1F
100
AcDbEntity
  8
0
  6
Continuous
 62
     7
370
    25
100
AcDbCircle
 10
351.4801446274
 20
-246.3712157773
 30
0.0
 40
5.307585764911732
100
AcDbArc
 50
330.441118896
 51
22.1323001009
  0
ARC
  5
3B8
330
1F
100
AcDbEntity
  8
0
  6
Continuous
 62
     7
370
    25
100
AcDbCircle
 10
359.2570558476
 20
-242.3435485395
 30
0.0
 40
3.506412575998051
100
AcDbArc
 50
154.3212692745
 51
215.336957896
  0
ARC
  5
3B9
330
1F
100
AcDbEntity
  8
0
  6
Continuous
 62
     7
370
    25
100
AcDbCircle
 10
351.4801446274
 20
-238.2058076585
 30
0.0
 40
5.307585764911606
100
AcDbArc
 50
330.441118896
 51
22.1323001009
  0
ARC
  5
3BA
330
1F
100
AcDbEntity
  8
0
  6
Continuous
 62
     7
370
    25
100
AcDbCircle
 10
359.7253990542
 20
-234.0617106922
 30
0.0
 40
3.959720511241929
100
AcDbArc
 50
147.2091342486
 51
212.7908657523
  0
LWPOLYLINE
  5
3BB
330
1F
100
AcDbEntity
  8
0
  6
Continuous
 62
     7
370
    25
100
AcDbPolyline
 90
       17
 70
   128
 43
0.0
 10
350.0739580928
 20
-236.1357213772
 10
349.6109247638
 20
-235.4058922453
 10
349.3899325368
 20
-234.4311766214
 10
349.4263760869
 20
-233.2794747694
 10
349.7177166977
 20
-232.0310160991
 10
350.243659112
 20
-230.7727702567
 10
350.9675653323
 20
-229.5923886785
 10
351.8390068827
 20
-228.5720986505
 10
352.7972777384
 20
-227.782975223
 10
353.7756232046
 20
-227.2799900076
 10
354.7058901572
 20
-227.0981817662
 10
355.5232746986
 20
-227.2502155545
 10
356.1708365024
 20
-227.7255004533
 10
356.603465368
 20
-228.4909273495
 10
356.7910236703
 20
-229.4931753699
 10
356.7204457954
 20
-230.6624262998
 10
356.3966483118
 20
-231.917228232
  0
ARC
  5
3BC
330
1F
100
AcDbEntity
  8
0
  6
Continuous
 62
     7
370
    25
100
AcDbCircle
 10
345.8427049615
 20
-237.7683024271
 30
0.0
 40
4.535286534031143
100
AcDbArc
 50
330.098060346
 51
21.0985426157
  0
ARC
  5
3BD
330
1F
100
AcDbEntity
  8
0
  6
Continuous
 62
     7
370
    25
100
AcDbCircle
 10
353.6177027974
 20
-241.9060430388
 30
0.0
 40
4.277214709181871
100
AcDbArc
 50
153.9729422824
 51
214.0533113701
  0
LINE
  5
3BE
330
1F
100
AcDbEntity
  8
0
  6
Continuous
 62
     7
370
    25
100
AcDbLine
 10
377.8341882854
 20
-193.5925618791
 30
0.0
 11
377.8341882854
 21
-362.9476427443
 31
0.0
  0
ARC
  5
3BF
330
1F
100
AcDbEntity
  8
0
  6
Continuous
 62
     7
370
    25
100
AcDbCircle
 10
362.4820272717
 20
-362.2490342217
 30
0.0
 40
15.3680480757211
100
AcDbArc
 50
302.60547834
 51
357.3945215143
  0
LINE
  5
3C0
330
1F
100
AcDbEntity
  8
0
  6
Continuous
 62
     7
370
    25
100
AcDbLine
 10
370.7631204735
 20
-375.1950914223
 30
0.0
 11
335.4077814142
 21
-395.6052942179
 31
0.0
  0
LWPOLYLINE
  5
3C1
330
1F
100
AcDbEntity
  8
0
  6
Continuous
 62
     7
370
    25
100
AcDbPolyline
 90
        9
 70
   128
 43
0.0
 10
335.4077814142
 20
-395.6052942179
 10
334.0282845178
 20
-396.2447647976
 10
332.7018009135
 20
-396.5458688268
 10
331.4793066223
 20
-396.4970350465
 10
330.4077814142
 20
-396.1001401114
 10
329.5284034021
 20
-395.3704364714
 10
328.8749665898
 20
-394.335966228
 10
328.4725821876
 20
-393.0364834927
 10
328.3367136024
 20
-391.5219266581
  0
LINE
  5
3C2
330
1F
100
AcDbEntity
  8
0
  6
Continuous
 62
     7
370
    25
100
AcDbLine
 10
328.3367136024
 20
-391.5219266581
 30
0.0
 11
328.3367136024
 21
-222.1668457929
 31
0.0
  0
LINE
  5
3C3
330
1F
100
AcDbEntity
  8
0
  6
Continuous
 62
     7
370
    25
100
AcDbLine
 10
328.3367136024
 20
-391.5219266581
 30
0.0
 11
326.2153932588
 21
-390.2973144904
 31
0.0
  0
LINE
  5
3C4
330
1F
100
AcDbEntity
  8
0
  6
Continuous
 62
     7
370
    25
100
AcDbLine
 10
326.2153932588
 20
-390.2973144904
 30
0.0
 11
326.2153932588
 21
-220.9422336252
 31
0.0
  0
LINE
  5
3C5
330
1F
100
AcDbEntity
  8
0
  6
Continuous
 62
     7
370
    25
100
AcDbLine
 10
356.3966483118
 20
-231.917228232
 30
0.0
 11
354.2753279682
 21
-230.6926160643
 31
0.0
  0
ARC
  5
3C6
330
1F
100
AcDbEntity
  8
0
  6
Continuous
 62
     7
370
    25
100
AcDbCircle
 10
349.7481843721
 20
-228.7120491571
 30
0.0
 40
4.941424330496326
100
AcDbArc
 50
336.3712428148
 51
18.8062871379
  0
LINE
  5
3C7
330
1F
100
AcDbEntity
  8
0
  6
Continuous
 62
     7
370
    25
100
AcDbLine
 10
356.3966483118
 20
-236.2061931524
 30
0.0
 11
354.2753279683
 21
-234.9815809846
 31
0.0
  0
ARC
  5
3C8
330
1F
100
AcDbEntity
  8
0
  6
Continuous
 62
     7
370
    25
100
AcDbCircle
 10
357.6040787107
 20
-232.8370985244
 30
0.0
 40
3.959720511242136
100
AcDbArc
 50
147.2091342486
 51
212.7908657523
  0
LINE
  5
3C9
330
1F
100
AcDbEntity
  8
0
  6
Continuous
 62
     7
370
    25
100
AcDbLine
 10
356.096943795
 20
-240.8241338602
 30
0.0
 11
353.9756234514
 21
-239.5995216924
 31
0.0
  0
ARC
  5
3CA
330
1F
100
AcDbEntity
  8
0
  6
Continuous
 62
     7
370
    25
100
AcDbCircle
 10
349.3588242839
 20
-236.9811954907
 30
0.0
 40
5.307585764911453
100
AcDbArc
 50
330.441118896
 51
22.1323001009
  0
LINE
  5
3CB
330
1F
100
AcDbEntity
  8
0
  6
Continuous
 62
     7
370
    25
100
AcDbLine
 10
356.3966483118
 20
-244.3716012712
 30
0.0
 11
354.2753279683
 21
-243.1469891035
 31
0.0
  0
ARC
  5
3CC
330
1F
100
AcDbEntity
  8
0
  6
Continuous
 62
     7
370
    25
100
AcDbCircle
 10
357.135735504
 20
-241.1189363718
 30
0.0
 40
3.50641257599801
100
AcDbArc
 50
154.3212692745
 51
215.336957896
  0
LINE
  5
3CD
330
1F
100
AcDbEntity
  8
0
  6
Continuous
 62
     7
370
    25
100
AcDbLine
 10
356.096943795
 20
-248.989541979
 30
0.0
 11
353.9756234514
 21
-247.7649298113
 31
0.0
  0
ARC
  5
3CE
330
1F
100
AcDbEntity
  8
0
  6
Continuous
 62
     7
370
    25
100
AcDbCircle
 10
349.3588242839
 20
-245.1466036096
 30
0.0
 40
5.307585764911468
100
AcDbArc
 50
330.441118896
 51
22.1323001009
  0
LINE
  5
3CF
330
1F
100
AcDbEntity
  8
0
  6
Continuous
 62
     7
370
    25
100
AcDbLine
 10
356.3966483118
 20
-252.5370093901
 30
0.0
 11
354.2753279683
 21
-251.3123972223
 31
0.0
  0
ARC
  5
3D0
330
1F
100
AcDbEntity
  8
0
  6
Continuous
 62
     7
370
    25
100
AcDbCircle
 10
357.135735504
 20
-249.2843444907
 30
0.0
 40
3.506412575997745
100
AcDbArc
 50
154.3212692745
 51
215.3369578961
  0
LINE
  5
3D1
330
1F
100
AcDbEntity
  8
0
  6
Continuous
 62
     7
370
    25
100
AcDbLine
 10
356.3966483119
 20
-256.4134525886
 30
0.0
 11
354.2753279683
 21
-255.1888404208
 31
0.0
  0
ARC
  5
3D2
330
1F
100
AcDbEntity
  8
0
  6
Continuous
 62
     7
370
    25
100
AcDbCircle
 10
349.8598836881
 20
-253.2506188216
 30
0.0
 40
4.822121022821354
100
AcDbArc
 50
336.300249464
 51
23.699750537
  0
LINE
  5
3D3
330
1F
100
AcDbEntity
  8
0
  6
Continuous
 62
     7
370
    25
100
AcDbLine
 10
356.3966483118
 20
-260.7024175089
 30
0.0
 11
354.2753279683
 21
-259.4778053412
 31
0.0
  0
ARC
  5
3D4
330
1F
100
AcDbEntity
  8
0
  6
Continuous
 62
     7
370
    25
100
AcDbCircle
 10
357.6040787108
 20
-257.333322881
 30
0.0
 40
3.959720511339712
100
AcDbArc
 50
147.2091342484
 51
212.7908657508
  0
LINE
  5
3D5
330
1F
100
AcDbEntity
  8
0
  6
Continuous
 62
     7
370
    25
100
AcDbLine
 10
356.3966483119
 20
-264.5788607074
 30
0.0
 11
354.2753279683
 21
-263.3542485397
 31
0.0
  0
ARC
  5
3D6
330
1F
100
AcDbEntity
  8
0
  6
Continuous
 62
     7
370
    25
100
AcDbCircle
 10
349.8598836882
 20
-261.4160269405
 30
0.0
 40
4.822121022816947
100
AcDbArc
 50
336.3002494641
 51
23.699750537
  0
LINE
  5
3D7
330
1F
100
AcDbEntity
  8
0
  6
Continuous
 62
     7
370
    25
100
AcDbLine
 10
356.3966483118
 20
-268.8678256278
 30
0.0
 11
354.2753279683
 21
-267.6432134601
 31
0.0
  0
LWPOLYLINE
  5
3D8
330
1F
100
AcDbEntity
  8
0
  6
Continuous
 62
     7
370
    25
100
AcDbPolyline
 90
       10
 70
   128
 43
0.0
 10
354.2753279683
 20
-267.6432134601
 10
354.604520757
 20
-268.5516605923
 10
354.6660519574
 20
-269.6763674631
 10
354.4553974558
 20
-270.934639412
 10
353.9880457345
 20
-272.2339613365
 10
353.298359073
 20
-273.4787999133
 10
352.4370470434
 20
-274.5776277355
 10
351.4674380627
 20
-275.4496529135
 10
350.4608231379
 20
-276.0307593404
 10
349.6237762556
 20
-276.2643844786
  0
ARC
  5
3D9
330
1F
100
AcDbEntity
  8
0
  6
Continuous
 62
     7
370
    25
100
AcDbCircle
 10
357.6040787108
 20
-265.4987309999
 30
0.0
 40
3.959720511342951
100
AcDbArc
 50
147.2091342483
 51
212.7908657508
  0
LINE
  5
3DA
330
1F
100
AcDbEntity
  8
0
  6
Continuous
 62
     7
370
    25
100
AcDbLine
 10
356.3966483118
 20
-293.1577891234
 30
0.0
 11
354.2753279682
 21
-291.9331769557
 31
0.0
  0
ARC
  5
3DB
330
1F
100
AcDbEntity
  8
0
  6
Continuous
 62
     7
370
    25
100
AcDbCircle
 10
349.7481843721
 20
-289.9526100486
 30
0.0
 40
4.941424330496929
100
AcDbArc
 50
336.3712428148
 51
18.8062871378
  0
LINE
  5
3DC
330
1F
100
AcDbEntity
  8
0
  6
Continuous
 62
     7
370
    25
100
AcDbLine
 10
356.3966483118
 20
-297.4467540438
 30
0.0
 11
354.2753279683
 21
-296.2221418761
 31
0.0
  0
ARC
  5
3DD
330
1F
100
AcDbEntity
  8
0
  6
Continuous
 62
     7
370
    25
100
AcDbCircle
 10
357.6040787107
 20
-294.0776594159
 30
0.0
 40
3.959720511241775
100
AcDbArc
 50
147.2091342486
 51
212.7908657523
  0
LINE
  5
3DE
330
1F
100
AcDbEntity
  8
0
  6
Continuous
 62
     7
370
    25
100
AcDbLine
 10
356.096943795
 20
-302.0646947516
 30
0.0
 11
353.9756234514
 21
-300.8400825839
 31
0.0
  0
ARC
  5
3DF
330
1F
100
AcDbEntity
  8
0
  6
Continuous
 62
     7
370
    25
100
AcDbCircle
 10
349.3588242839
 20
-298.2217563822
 30
0.0
 40
5.307585764912835
100
AcDbArc
 50
330.441118896
 51
22.1323001008
  0
LINE
  5
3E0
330
1F
100
AcDbEntity
  8
0
  6
Continuous
 62
     7
370
    25
100
AcDbLine
 10
356.3966483118
 20
-305.6121621626
 30
0.0
 11
354.2753279683
 21
-304.3875499949
 31
0.0
  0
ARC
  5
3E1
330
1F
100
AcDbEntity
  8
0
  6
Continuous
 62
     7
370
    25
100
AcDbCircle
 10
357.135735504
 20
-302.3594972632
 30
0.0
 40
3.506412575996714
100
AcDbArc
 50
154.3212692745
 51
215.3369578961
  0
LINE
  5
3E2
330
1F
100
AcDbEntity
  8
0
  6
Continuous
 62
     7
370
    25
100
AcDbLine
 10
356.096943795
 20
-310.2301028705
 30
0.0
 11
353.9756234514
 21
-309.0054907027
 31
0.0
  0
ARC
  5
3E3
330
1F
100
AcDbEntity
  8
0
  6
Continuous
 62
     7
370
    25
100
AcDbCircle
 10
349.3588242839
 20
-306.387164501
 30
0.0
 40
5.307585764912794
100
AcDbArc
 50
330.441118896
 51
22.1323001008
  0
LINE
  5
3E4
330
1F
100
AcDbEntity
  8
0
  6
Continuous
 62
     7
370
    25
100
AcDbLine
 10
356.3966483118
 20
-313.7775702815
 30
0.0
 11
354.2753279683
 21
-312.5529581138
 31
0.0
  0
ARC
  5
3E5
330
1F
100
AcDbEntity
  8
0
  6
Continuous
 62
     7
370
    25
100
AcDbCircle
 10
357.135735504
 20
-310.5249053821
 30
0.0
 40
3.506412575996423
100
AcDbArc
 50
154.3212692745
 51
215.3369578961
  0
LINE
  5
3E6
330
1F
100
AcDbEntity
  8
0
  6
Continuous
 62
     7
370
    25
100
AcDbLine
 10
356.3966483118
 20
-317.65401348
 30
0.0
 11
354.2753279682
 21
-316.4294013123
 31
0.0
  0
ARC
  5
3E7
330
1F
100
AcDbEntity
  8
0
  6
Continuous
 62
     7
370
    25
100
AcDbCircle
 10
349.859883688
 20
-314.491179713
 30
0.0
 40
4.822121022961831
100
AcDbArc
 50
336.3002494635
 51
23.6997505355
  0
LINE
  5
3E8
330
1F
100
AcDbEntity
  8
0
  6
Continuous
 62
     7
370
    25
100
AcDbLine
 10
356.3966483118
 20
-321.9429784004
 30
0.0
 11
354.2753279683
 21
-320.7183662326
 31
0.0
  0
ARC
  5
3E9
330
1F
100
AcDbEntity
  8
0
  6
Continuous
 62
     7
370
    25
100
AcDbCircle
 10
357.6040787107
 20
-318.5738837724
 30
0.0
 40
3.959720511241978
100
AcDbArc
 50
147.2091342486
 51
212.7908657523
  0
LINE
  5
3EA
330
1F
100
AcDbEntity
  8
0
  6
Continuous
 62
     7
370
    25
100
AcDbLine
 10
356.3966483118
 20
-325.8194215989
 30
0.0
 11
354.2753279682
 21
-324.5948094311
 31
0.0
  0
ARC
  5
3EB
330
1F
100
AcDbEntity
  8
0
  6
Continuous
 62
     7
370
    25
100
AcDbCircle
 10
349.859883688
 20
-322.6565878318
 30
0.0
 40
4.82212102296138
100
AcDbArc
 50
336.3002494635
 51
23.6997505355
  0
LINE
  5
3EC
330
1F
100
AcDbEntity
  8
0
  6
Continuous
 62
     7
370
    25
100
AcDbLine
 10
356.3966483118
 20
-330.1083865192
 30
0.0
 11
354.2753279683
 21
-328.8837743515
 31
0.0
  0
LWPOLYLINE
  5
3ED
330
1F
100
AcDbEntity
  8
0
  6
Continuous
 62
     7
370
    25
100
AcDbPolyline
 90
       10
 70
   128
 43
0.0
 10
354.2753279683
 20
-328.8837743515
 10
354.604520757
 20
-329.7922214838
 10
354.6660519574
 20
-330.9169283545
 10
354.4553974558
 20
-332.1752003034
 10
353.9880457345
 20
-333.4745222279
 10
353.298359073
 20
-334.7193608047
 10
352.4370470434
 20
-335.818188627
 10
351.4674380627
 20
-336.690213805
 10
350.4608231379
 20
-337.2713202319
 10
349.6237762556
 20
-337.5049453701
  0
ARC
  5
3EE
330
1F
100
AcDbEntity
  8
0
  6
Continuous
 62
     7
370
    25
100
AcDbCircle
 10
357.6040787107
 20
-326.7392918913
 30
0.0
 40
3.959720511241799
100
AcDbArc
 50
147.2091342486
 51
212.7908657523
  0
LWPOLYLINE
  5
3EF
330
1F
100
AcDbEntity
  8
0
  6
Continuous
 62
     7
370
    25
100
AcDbPolyline
 90
       11
 70
   128
 43
0.0
 10
354.4258052886
 20
-352.0498285375
 10
354.5499472853
 20
-352.4170886819
 10
354.6764412016
 20
-353.4535809428
 10
354.5499472853
 20
-354.6361199707
 10
354.1790858877
 20
-355.8841176852
 10
353.5891306003
 20
-357.1125251044
 10
352.8202859009
 20
-358.2376282928
 10
351.9249472853
 20
-359.1827533273
 10
350.9641306003
 20
-359.8834914987
 10
350.0033139154
 20
-360.2920886588
 10
349.6237762556
 20
-360.3680881029
  0
ARC
  5
3F0
330
1F
100
AcDbEntity
  8
0
  6
Continuous
 62
     7
370
    25
100
AcDbCircle
 10
331.1154122829
 20
-390.8381818636
 30
0.0
 40
4.92977930058577
100
AcDbArc
 50
173.7011524855
 51
234.9866671212
  0
LINE
  5
3F1
330
1F
100
AcDbEntity
  8
0
  6
Continuous
 62
     7
370
    25
100
AcDbLine
 10
-461.8317025925
 20
583.0225551069
 30
0.0
 11
-464.8317025925
 21
583.0225551069
 31
0.0
  0
LINE
  5
3F2
330
1F
100
AcDbEntity
  8
0
  6
Continuous
 62
     7
370
    25
100
AcDbLine
 10
-461.8317025925
 20
573.0225551069
 30
0.0
 11
-464.8317025925
 21
573.0225551069
 31
0.0
  0
LINE
  5
3F3
330
1F
100
AcDbEntity
  8
0
  6
Continuous
 62
     7
370
    25
100
AcDbLine
 10
-464.8317025925
 20
573.0225551069
 30
0.0
 11
-464.8317025925
 21
583.0225551069
 31
0.0
  0
LINE
  5
3F4
330
1F
100
AcDbEntity
  8
0
  6
Continuous
 62
     7
370
    25
100
AcDbLine
 10
-461.8317025925
 20
573.0225551069
 30
0.0
 11
-461.8317025925
 21
583.0225551069
 31
0.0
  0
LINE
  5
3F5
330
1F
100
AcDbEntity
  8
0
  6
Continuous
 62
     7
370
    25
100
AcDbLine
 10
-461.8317025925
 20
633.0225551069
 30
0.0
 11
-464.8317025925
 21
633.0225551069
 31
0.0
  0
LINE
  5
3F6
330
1F
100
AcDbEntity
  8
0
  6
Continuous
 62
     7
370
    25
100
AcDbLine
 10
-464.8317025925
 20
583.0225551069
 30
0.0
 11
-464.8317025925
 21
633.0225551069
 31
0.0
  0
LINE
  5
3F7
330
1F
100
AcDbEntity
  8
0
  6
Continuous
 62
     7
370
    25
100
AcDbLine
 10
-461.8317025925
 20
583.0225551069
 30
0.0
 11
-461.8317025925
 21
633.0225551069
 31
0.0
  0
LINE
  5
3F8
330
1F
100
AcDbEntity
  8
0
  6
Continuous
 62
     7
370
    25
100
AcDbLine
 10
-461.8317025925
 20
643.0225551069
 30
0.0
 11
-464.8317025925
 21
643.0225551069
 31
0.0
  0
LINE
  5
3F9
330
1F
100
AcDbEntity
  8
0
  6
Continuous
 62
     7
370
    25
100
AcDbLine
 10
-464.8317025925
 20
633.0225551069
 30
0.0
 11
-464.8317025925
 21
643.0225551069
 31
0.0
  0
LINE
  5
3FA
330
1F
100
AcDbEntity
  8
0
  6
Continuous
 62
     7
370
    25
100
AcDbLine
 10
-461.8317025925
 20
633.0225551069
 30
0.0
 11
-461.8317025925
 21
643.0225551069
 31
0.0
  0
LINE
  5
3FB
330
1F
100
AcDbEntity
  8
0
  6
Continuous
 62
     7
370
    25
100
AcDbLine
 10
-47.8030592714
 20
573.0225551069
 30
0.0
 11
-44.8030592714
 21
573.0225551069
 31
0.0
  0
LINE
  5
3FC
330
1F
100
AcDbEntity
  8
0
  6
Continuous
 62
     7
370
    25
100
AcDbLine
 10
-47.8030592714
 20
573.0225551069
 30
0.0
 11
-47.8030592714
 21
583.0225551069
 31
0.0
  0
LINE
  5
3FD
330
1F
100
AcDbEntity
  8
0
  6
Continuous
 62
     7
370
    25
100
AcDbLine
 10
-47.8030592714
 20
583.0225551069
 30
0.0
 11
-44.8030592714
 21
583.0225551069
 31
0.0
  0
LINE
  5
3FE
330
1F
100
AcDbEntity
  8
0
  6
Continuous
 62
     7
370
    25
100
AcDbLine
 10
-44.8030592714
 20
573.0225551069
 30
0.0
 11
-44.8030592714
 21
583.0225551069
 31
0.0
  0
LINE
  5
3FF
330
1F
100
AcDbEntity
  8
0
  6
Continuous
 62
     7
370
    25
100
AcDbLine
 10
-47.8030592714
 20
583.0225551069
 30
0.0
 11
-47.8030592714
 21
633.0225551069
 31
0.0
  0
LINE
  5
400
330
1F
100
AcDbEntity
  8
0
  6
Continuous
 62
     7
370
    25
100
AcDbLine
 10
-47.8030592714
 20
633.0225551069
 30
0.0
 11
-44.8030592714
 21
633.0225551069
 31
0.0
  0
LINE
  5
401
330
1F
100
AcDbEntity
  8
0
  6
Continuous
 62
     7
370
    25
100
AcDbLine
 10
-44.8030592714
 20
583.0225551069
 30
0.0
 11
-44.8030592714
 21
633.0225551069
 31
0.0
  0
LINE
  5
402
330
1F
100
AcDbEntity
  8
0
  6
Continuous
 62
     7
370
    25
100
AcDbLine
 10
-47.8030592714
 20
643.0225551069
 30
0.0
 11
-44.8030592714
 21
643.0225551069
 31
0.0
  0
LINE
  5
403
330
1F
100
AcDbEntity
  8
0
  6
Continuous
 62
     7
370
    25
100
AcDbLine
 10
-47.8030592714
 20
633.0225551069
 30
0.0
 11
-47.8030592714
 21
643.0225551069
 31
0.0
  0
LINE
  5
404
330
1F
100
AcDbEntity
  8
0
  6
Continuous
 62
     7
370
    25
100
AcDbLine
 10
-44.8030592714
 20
633.0225551069
 30
0.0
 11
-44.8030592714
 21
643.0225551069
 31
0.0
  0
LINE
  5
405
330
1F
100
AcDbEntity
  8
0
  6
Continuous
 62
     7
370
    25
100
AcDbLine
 10
-44.8030592714
 20
643.0225551069
 30
0.0
 11
-42.8641061628
 21
643.0225551069
 31
0.0
  0
LINE
  5
406
330
1F
100
AcDbEntity
  8
0
  6
Continuous
 62
     7
370
    25
100
AcDbLine
 10
-42.8641061628
 20
573.0225551069
 30
0.0
 11
-42.8641061628
 21
643.0225551069
 31
0.0
  0
LINE
  5
407
330
1F
100
AcDbEntity
  8
0
  6
Continuous
 62
     7
370
    25
100
AcDbLine
 10
-42.8641061628
 20
573.0225551069
 30
0.0
 11
-44.8030592714
 21
573.0225551069
 31
0.0
  0
LINE
  5
408
330
1F
100
AcDbEntity
  8
0
  6
Continuous
 62
     7
370
    25
100
AcDbLine
 10
-466.770655701
 20
643.0225551069
 30
0.0
 11
-466.770655701
 21
573.0225551069
 31
0.0
  0
LINE
  5
409
330
1F
100
AcDbEntity
  8
0
  6
Continuous
 62
     7
370
    25
100
AcDbLine
 10
-466.770655701
 20
643.0225551069
 30
0.0
 11
-464.8317025925
 21
643.0225551069
 31
0.0
  0
LINE
  5
40A
330
1F
100
AcDbEntity
  8
0
  6
Continuous
 62
     7
370
    25
100
AcDbLine
 10
-464.8317025925
 20
573.0225551069
 30
0.0
 11
-466.770655701
 21
573.0225551069
 31
0.0
  0
LINE
  5
40B
330
1F
100
AcDbEntity
  8
0
  6
Continuous
 62
     7
370
    25
100
AcDbLine
 10
-35.6437946455
 20
643.0225551069
 30
0.0
 11
-42.8641061628
 21
643.0225551069
 31
0.0
  0
LINE
  5
40C
330
1F
100
AcDbEntity
  8
0
  6
Continuous
 62
     7
370
    25
100
AcDbLine
 10
-35.6437946455
 20
573.0225551069
 30
0.0
 11
-35.6437946455
 21
643.0225551069
 31
0.0
  0
LINE
  5
40D
330
1F
100
AcDbEntity
  8
0
  6
Continuous
 62
     7
370
    25
100
AcDbLine
 10
-42.8641061628
 20
573.0225551069
 30
0.0
 11
-35.6437946455
 21
573.0225551069
 31
0.0
  0
LINE
  5
40E
330
1F
100
AcDbEntity
  8
0
  6
Continuous
 62
     7
370
    25
100
AcDbLine
 10
-473.9909672184
 20
573.0225551069
 30
0.0
 11
-473.9909672184
 21
643.0225551069
 31
0.0
  0
LINE
  5
40F
330
1F
100
AcDbEntity
  8
0
  6
Continuous
 62
     7
370
    25
100
AcDbLine
 10
-466.770655701
 20
643.0225551069
 30
0.0
 11
-473.9909672184
 21
643.0225551069
 31
0.0
  0
LINE
  5
410
330
1F
100
AcDbEntity
  8
0
  6
Continuous
 62
     7
370
    25
100
AcDbLine
 10
-473.9909672184
 20
573.0225551069
 30
0.0
 11
-466.770655701
 21
573.0225551069
 31
0.0
  0
LINE
  5
411
330
1F
100
AcDbEntity
  8
0
  6
Continuous
 62
     7
370
    25
100
AcDbLine
 10
-476.8085999834
 20
573.0225551069
 30
0.0
 11
-476.8085999834
 21
643.0225551069
 31
0.0
  0
LINE
  5
412
330
1F
100
AcDbEntity
  8
0
  6
Continuous
 62
     7
370
    25
100
AcDbLine
 10
-476.8085999834
 20
643.0225551069
 30
0.0
 11
-473.9909672184
 21
643.0225551069
 31
0.0
  0
LINE
  5
413
330
1F
100
AcDbEntity
  8
0
  6
Continuous
 62
     7
370
    25
100
AcDbLine
 10
-473.9909672184
 20
573.0225551069
 30
0.0
 11
-476.8085999834
 21
573.0225551069
 31
0.0
  0
LINE
  5
414
330
1F
100
AcDbEntity
  8
0
  6
Continuous
 62
     7
370
    25
100
AcDbLine
 10
-32.8261618805
 20
573.0225551069
 30
0.0
 11
-32.8261618805
 21
643.0225551069
 31
0.0
  0
LINE
  5
415
330
1F
100
AcDbEntity
  8
0
  6
Continuous
 62
     7
370
    25
100
AcDbLine
 10
-35.6437946455
 20
643.0225551069
 30
0.0
 11
-32.8261618805
 21
643.0225551069
 31
0.0
  0
LINE
  5
416
330
1F
100
AcDbEntity
  8
0
  6
Continuous
 62
     7
370
    25
100
AcDbLine
 10
-32.8261618805
 20
573.0225551069
 30
0.0
 11
-35.6437946455
 21
573.0225551069
 31
0.0
  0
LINE
  5
417
330
1F
100
AcDbEntity
  8
0
  6
Continuous
 62
     7
370
    25
100
AcDbLine
 10
-42.0473809319
 20
569.7961173532
 30
0.0
 11
-42.0473809319
 21
566.7961173532
 31
0.0
  0
LINE
  5
418
330
1F
100
AcDbEntity
  8
0
  6
Continuous
 62
     7
370
    25
100
AcDbLine
 10
-39.0473809319
 20
569.7961173532
 30
0.0
 11
-42.0473809319
 21
569.7961173532
 31
0.0
  0
LINE
  5
419
330
1F
100
AcDbEntity
  8
0
  6
Continuous
 62
     7
370
    25
100
AcDbLine
 10
-39.0473809319
 20
569.7961173532
 30
0.0
 11
-39.0473809319
 21
566.7961173532
 31
0.0
  0
LINE
  5
41A
330
1F
100
AcDbEntity
  8
0
  6
Continuous
 62
     7
370
    25
100
AcDbLine
 10
-39.0473809319
 20
566.7961173532
 30
0.0
 11
-42.0473809319
 21
566.7961173532
 31
0.0
  0
LINE
  5
41B
330
1F
100
AcDbEntity
  8
0
  6
Continuous
 62
     7
370
    25
100
AcDbLine
 10
-467.5873809319
 20
569.7961173532
 30
0.0
 11
-467.5873809319
 21
566.7961173532
 31
0.0
  0
LINE
  5
41C
330
1F
100
AcDbEntity
  8
0
  6
Continuous
 62
     7
370
    25
100
AcDbLine
 10
-42.0473809319
 20
569.7961173532
 30
0.0
 11
-467.5873809319
 21
569.7961173532
 31
0.0
  0
LINE
  5
41D
330
1F
100
AcDbEntity
  8
0
  6
Continuous
 62
     7
370
    25
100
AcDbLine
 10
-42.0473809319
 20
566.7961173532
 30
0.0
 11
-467.5873809319
 21
566.7961173532
 31
0.0
  0
LINE
  5
41E
330
1F
100
AcDbEntity
  8
0
  6
Continuous
 62
     7
370
    25
100
AcDbLine
 10
-470.5873809319
 20
569.7961173532
 30
0.0
 11
-470.5873809319
 21
566.7961173532
 31
0.0
  0
LINE
  5
41F
330
1F
100
AcDbEntity
  8
0
  6
Continuous
 62
     7
370
    25
100
AcDbLine
 10
-467.5873809319
 20
569.7961173532
 30
0.0
 11
-470.5873809319
 21
569.7961173532
 31
0.0
  0
LINE
  5
420
330
1F
100
AcDbEntity
  8
0
  6
Continuous
 62
     7
370
    25
100
AcDbLine
 10
-467.5873809319
 20
566.7961173532
 30
0.0
 11
-470.5873809319
 21
566.7961173532
 31
0.0
  0
LINE
  5
421
330
1F
100
AcDbEntity
  8
0
  6
Continuous
 62
     7
370
    25
100
AcDbLine
 10
-39.0473809319
 20
646.2489928605
 30
0.0
 11
-39.0473809319
 21
649.2489928605
 31
0.0
  0
LINE
  5
422
330
1F
100
AcDbEntity
  8
0
  6
Continuous
 62
     7
370
    25
100
AcDbLine
 10
-42.0473809319
 20
646.2489928605
 30
0.0
 11
-39.0473809319
 21
646.2489928605
 31
0.0
  0
LINE
  5
423
330
1F
100
AcDbEntity
  8
0
  6
Continuous
 62
     7
370
    25
100
AcDbLine
 10
-42.0473809319
 20
646.2489928605
 30
0.0
 11
-42.0473809319
 21
649.2489928605
 31
0.0
  0
LINE
  5
424
330
1F
100
AcDbEntity
  8
0
  6
Continuous
 62
     7
370
    25
100
AcDbLine
 10
-42.0473809319
 20
649.2489928605
 30
0.0
 11
-39.0473809319
 21
649.2489928605
 31
0.0
  0
LINE
  5
425
330
1F
100
AcDbEntity
  8
0
  6
Continuous
 62
     7
370
    25
100
AcDbLine
 10
-467.5873809319
 20
646.2489928605
 30
0.0
 11
-467.5873809319
 21
649.2489928605
 31
0.0
  0
LINE
  5
426
330
1F
100
AcDbEntity
  8
0
  6
Continuous
 62
     7
370
    25
100
AcDbLine
 10
-467.5873809319
 20
649.2489928605
 30
0.0
 11
-42.0473809319
 21
649.2489928605
 31
0.0
  0
LINE
  5
427
330
1F
100
AcDbEntity
  8
0
  6
Continuous
 62
     7
370
    25
100
AcDbLine
 10
-467.5873809319
 20
646.2489928605
 30
0.0
 11
-42.0473809319
 21
646.2489928605
 31
0.0
  0
LINE
  5
428
330
1F
100
AcDbEntity
  8
0
  6
Continuous
 62
     7
370
    25
100
AcDbLine
 10
-470.5873809319
 20
646.2489928605
 30
0.0
 11
-470.5873809319
 21
649.2489928605
 31
0.0
  0
LINE
  5
429
330
1F
100
AcDbEntity
  8
0
  6
Continuous
 62
     7
370
    25
100
AcDbLine
 10
-470.5873809319
 20
649.2489928605
 30
0.0
 11
-467.5873809319
 21
649.2489928605
 31
0.0
  0
LINE
  5
42A
330
1F
100
AcDbEntity
  8
0
  6
Continuous
 62
     7
370
    25
100
AcDbLine
 10
-470.5873809319
 20
646.2489928605
 30
0.0
 11
-467.5873809319
 21
646.2489928605
 31
0.0
  0
LINE
  5
42B
330
1F
100
AcDbEntity
  8
0
  6
Continuous
 62
     7
370
    25
100
AcDbLine
 10
-47.8030592714
 20
573.0261173532
 30
0.0
 11
-461.8317025925
 21
573.0261173532
 31
0.0
  0
LINE
  5
42C
330
1F
100
AcDbEntity
  8
0
  6
Continuous
 62
     7
370
    25
100
AcDbLine
 10
-470.5873809319
 20
572.9981213116
 30
0.0
 11
-470.5873809319
 21
569.7961173532
 31
0.0
  0
LINE
  5
42D
330
1F
100
AcDbEntity
  8
0
  6
Continuous
 62
     7
370
    25
100
AcDbLine
 10
-39.0473809319
 20
569.7961173532
 30
0.0
 11
-39.0473809319
 21
572.9981213116
 31
0.0
  0
LINE
  5
42E
330
1F
100
AcDbEntity
  8
0
  6
Continuous
 62
     7
370
    25
100
AcDbLine
 10
-47.8030592714
 20
643.0189928605
 30
0.0
 11
-461.8317025925
 21
643.0189928605
 31
0.0
  0
LINE
  5
42F
330
1F
100
AcDbEntity
  8
0
  6
Continuous
 62
     7
370
    25
100
AcDbLine
 10
-470.5873809319
 20
646.2489928605
 30
0.0
 11
-470.5873809319
 21
643.0469889021
 31
0.0
  0
LINE
  5
430
330
1F
100
AcDbEntity
  8
0
  6
Continuous
 62
     7
370
    25
100
AcDbLine
 10
-39.0473809319
 20
643.0469889021
 30
0.0
 11
-39.0473809319
 21
646.2489928605
 31
0.0
  0
ARC
  5
431
330
1F
100
AcDbEntity
  8
0
  6
Continuous
 62
     7
370
    25
100
AcDbCircle
 10
-451.3173809319
 20
628.7525551069
 30
0.0
 40
5.500000000000114
100
AcDbArc
 50
90.0
 51
270.0
  0
LINE
  5
432
330
1F
100
AcDbEntity
  8
0
  6
Continuous
 62
     7
370
    25
100
AcDbLine
 10
-406.3173809319
 20
623.2525551069
 30
0.0
 11
-451.3173809319
 21
623.2525551069
 31
0.0
  0
ARC
  5
433
330
1F
100
AcDbEntity
  8
0
  6
Continuous
 62
     7
370
    25
100
AcDbCircle
 10
-406.3173809319
 20
628.7525551069
 30
0.0
 40
5.500000000000114
100
AcDbArc
 50
270.0
 51
90.0
  0
LINE
  5
434
330
1F
100
AcDbEntity
  8
0
  6
Continuous
 62
     7
370
    25
100
AcDbLine
 10
-451.3173809319
 20
634.2525551069
 30
0.0
 11
-406.3173809319
 21
634.2525551069
 31
0.0
  0
ARC
  5
435
330
1F
100
AcDbEntity
  8
0
  6
Continuous
 62
     7
370
    25
100
AcDbCircle
 10
-58.3173809319
 20
628.7525551069
 30
0.0
 40
5.500000000000114
100
AcDbArc
 50
270.0
 51
90.0
  0
LINE
  5
436
330
1F
100
AcDbEntity
  8
0
  6
Continuous
 62
     7
370
    25
100
AcDbLine
 10
-103.3173809319
 20
634.2525551069
 30
0.0
 11
-58.3173809319
 21
634.2525551069
 31
0.0
  0
ARC
  5
437
330
1F
100
AcDbEntity
  8
0
  6
Continuous
 62
     7
370
    25
100
AcDbCircle
 10
-103.3173809319
 20
628.7525551069
 30
0.0
 40
5.500000000000114
100
AcDbArc
 50
90.0
 51
270.0
  0
LINE
  5
438
330
1F
100
AcDbEntity
  8
0
  6
Continuous
 62
     7
370
    25
100
AcDbLine
 10
-58.3173809319
 20
623.2525551069
 30
0.0
 11
-103.3173809319
 21
623.2525551069
 31
0.0
  0
ARC
  5
439
330
1F
100
AcDbEntity
  8
0
  6
Continuous
 62
     7
370
    25
100
AcDbCircle
 10
-451.3173809319
 20
587.2925551069
 30
0.0
 40
5.5
100
AcDbArc
 50
90.0
 51
270.0
  0
LINE
  5
43A
330
1F
100
AcDbEntity
  8
0
  6
Continuous
 62
     7
370
    25
100
AcDbLine
 10
-406.3173809319
 20
581.7925551069
 30
0.0
 11
-451.3173809319
 21
581.7925551069
 31
0.0
  0
ARC
  5
43B
330
1F
100
AcDbEntity
  8
0
  6
Continuous
 62
     7
370
    25
100
AcDbCircle
 10
-406.3173809319
 20
587.2925551069
 30
0.0
 40
5.5
100
AcDbArc
 50
270.0
 51
90.0
  0
LINE
  5
43C
330
1F
100
AcDbEntity
  8
0
  6
Continuous
 62
     7
370
    25
100
AcDbLine
 10
-451.3173809319
 20
592.7925551069
 30
0.0
 11
-406.3173809319
 21
592.7925551069
 31
0.0
  0
ARC
  5
43D
330
1F
100
AcDbEntity
  8
0
  6
Continuous
 62
     7
370
    25
100
AcDbCircle
 10
-58.3173809319
 20
587.2925551069
 30
0.0
 40
5.5
100
AcDbArc
 50
270.0
 51
90.0
  0
LINE
  5
43E
330
1F
100
AcDbEntity
  8
0
  6
Continuous
 62
     7
370
    25
100
AcDbLine
 10
-103.3173809319
 20
592.7925551069
 30
0.0
 11
-58.3173809319
 21
592.7925551069
 31
0.0
  0
ARC
  5
43F
330
1F
100
AcDbEntity
  8
0
  6
Continuous
 62
     7
370
    25
100
AcDbCircle
 10
-103.3173809319
 20
587.2925551069
 30
0.0
 40
5.5
100
AcDbArc
 50
90.0
 51
270.0
  0
LINE
  5
440
330
1F
100
AcDbEntity
  8
0
  6
Continuous
 62
     7
370
    25
100
AcDbLine
 10
-58.3173809319
 20
581.7925551069
 30
0.0
 11
-103.3173809319
 21
581.7925551069
 31
0.0
  0
CIRCLE
  5
441
330
1F
100
AcDbEntity
  8
0
  6
Continuous
 62
     7
370
    25
100
AcDbCircle
 10
-350.3173809319
 20
608.0225551069
 30
0.0
 40
6.500000000000057
  0
CIRCLE
  5
442
330
1F
100
AcDbEntity
  8
0
  6
Continuous
 62
     7
370
    25
100
AcDbCircle
 10
-159.3173809319
 20
608.0225551069
 30
0.0
 40
6.5
  0
CIRCLE
  5
443
330
1F
100
AcDbEntity
  8
0
  6
Continuous
 62
     7
370
    25
100
AcDbCircle
 10
-254.8173809319
 20
608.0225551069
 30
0.0
 40
6.5
  0
INSERT
  5
44F
330
1F
100
AcDbEntity
  8
0
  6
Continuous
 62
     7
420
 16777215
370
    18
100
AcDbBlockReference
  2
SW_CENTERMARKSYMBOL_4
 10
-254.8173809319
 20
608.0225551069
 30
0.0
  0
INSERT
  5
45B
330
1F
100
AcDbEntity
  8
0
  6
Continuous
 62
     7
420
 16777215
370
    18
100
AcDbBlockReference
  2
SW_CENTERMARKSYMBOL_5
 10
-159.3173809319
 20
608.0225551069
 30
0.0
  0
INSERT
  5
467
330
1F
100
AcDbEntity
  8
0
  6
Continuous
 62
     7
420
 16777215
370
    18
100
AcDbBlockReference
  2
SW_CENTERMARKSYMBOL_6
 10
-350.3173809319
 20
608.0225551069
 30
0.0
  0
SPLINE
  5
468
330
1F
100
AcDbEntity
  8
0
  6
Continuous
 62
     7
370
    25
100
AcDbSpline
210
0.0
220
0.0
230
1.0
 70
     8
 71
     3
 72
     8
 73
     4
 74
     0
 42
0.000000001
 43
0.00000001
 40
0.0
 40
0.0
 40
0.0
 40
0.0
 40
1.0
 40
1.0
 40
1.0
 40
1.0
 10
-788.6407357564071
 20
419.1081330201123
 30
0.0
 10
-788.6353941196038
 20
419.1081330201123
 30
0.0
 10
-788.6300524902349
 20
419.1080550122085
 30
0.0
 10
-788.6247108682954
 20
419.1078989993312
 30
0.0
  0
LINE
  5
469
330
1F
100
AcDbEntity
  8
0
  6
Continuous
 62
     7
370
    25
100
AcDbLine
 10
-788.6247108683
 20
419.1078989993
 30
0.0
 11
-788.6247108683
 21
412.8781330201
 31
0.0
  0
LINE
  5
46A
330
1F
100
AcDbEntity
  8
0
  6
Continuous
 62
     7
370
    25
100
AcDbLine
 10
-788.6247108683
 20
412.8781330201
 30
0.0
 11
-1220.1647108683
 21
412.8781330201
 31
0.0
  0
LINE
  5
46B
330
1F
100
AcDbEntity
  8
0
  6
Continuous
 62
     7
370
    25
100
AcDbLine
 10
-1220.1647108683
 20
412.8781330201
 30
0.0
 11
-1220.1647108683
 21
419.1078989993
 31
0.0
  0
SPLINE
  5
46C
330
1F
100
AcDbEntity
  8
0
  6
Continuous
 62
     7
370
    25
100
AcDbSpline
210
0.0
220
0.0
230
1.0
 70
     8
 71
     3
 72
     8
 73
     4
 74
     0
 42
0.000000001
 43
0.00000001
 40
0.0
 40
0.0
 40
0.0
 40
0.0
 40
1.0
 40
1.0
 40
1.0
 40
1.0
 10
-1220.164710868296
 20
419.1078989993312
 30
0.0
 10
-1220.159369231493
 20
419.1080550122085
 30
0.0
 10
-1220.154027602124
 20
419.1081330201123
 30
0.0
 10
-1220.148685980184
 20
419.1081330201123
 30
0.0
  0
LINE
  5
46D
330
1F
100
AcDbEntity
  8
0
  6
Continuous
 62
     7
370
    25
100
AcDbLine
 10
-788.6407357564
 20
419.1081330201
 30
0.0
 11
-1220.1486859802
 21
419.1081330201
 31
0.0
  0
ARC
  5
46E
330
1F
100
AcDbEntity
  8
0
  6
Continuous
 62
     7
370
    25
100
AcDbCircle
 10
-791.6247108683
 20
407.1045707738
 30
0.0
 40
3.000000000000057
100
AcDbArc
 50
270.0
 51
360.0
  0
LINE
  5
46F
330
1F
100
AcDbEntity
  8
0
  6
Continuous
 62
     7
370
    25
100
AcDbLine
 10
-1217.1647108683
 20
404.1045707738
 30
0.0
 11
-791.6247108683
 21
404.1045707738
 31
0.0
  0
ARC
  5
470
330
1F
100
AcDbEntity
  8
0
  6
Continuous
 62
     7
370
    25
100
AcDbCircle
 10
-1217.1647108683
 20
407.1045707738
 30
0.0
 40
3.0
100
AcDbArc
 50
180.0
 51
270.0
  0
LINE
  5
471
330
1F
100
AcDbEntity
  8
0
  6
Continuous
 62
     7
370
    25
100
AcDbLine
 10
-1220.1647108683
 20
412.8781330201
 30
0.0
 11
-1220.1647108683
 21
407.1045707738
 31
0.0
  0
LINE
  5
472
330
1F
100
AcDbEntity
  8
0
  6
Continuous
 62
     7
370
    25
100
AcDbLine
 10
-788.6247108683
 20
407.1045707738
 30
0.0
 11
-788.6247108683
 21
412.8781330201
 31
0.0
  0
LINE
  5
473
330
1F
100
AcDbEntity
  8
0
  6
Continuous
 62
     7
370
    25
100
AcDbLine
 10
-1220.2171692613
 20
419.1078320291
 30
0.0
 11
-1220.1876800118
 21
416.1079769686
 31
0.0
  0
SPLINE
  5
474
330
1F
100
AcDbEntity
  8
0
  6
Continuous
 62
     7
370
    25
100
AcDbSpline
210
0.0
220
0.0
230
1.0
 70
     8
 71
     3
 72
     8
 73
     4
 74
     0
 42
0.000000001
 43
0.00000001
 40
0.0
 40
0.0
 40
0.0
 40
0.0
 40
1.0
 40
1.0
 40
1.0
 40
1.0
 10
-1220.155929919741
 20
419.1081330201123
 30
0.0
 10
-1220.176343362347
 20
419.1081330201123
 30
0.0
 10
-1220.196756804933
 20
419.1080326881715
 30
0.0
 10
-1220.217169261303
 20
419.1078320291372
 30
0.0
  0
LINE
  5
475
330
1F
100
AcDbEntity
  8
0
  6
Continuous
 62
     7
370
    25
100
AcDbLine
 10
-1226.3859299197
 20
412.8781330201
 30
0.0
 11
-1223.3859299197
 21
412.8781330201
 31
0.0
  0
ARC
  5
476
330
1F
100
AcDbEntity
  8
0
  6
Continuous
 62
     7
370
    25
100
AcDbCircle
 10
-1220.1559299197
 20
412.8781330201
 30
0.0
 40
6.230000000000057
100
AcDbArc
 50
90.5632122503
 51
180.0
  0
ARC
  5
477
330
1F
100
AcDbEntity
  8
0
  6
Continuous
 62
     7
370
    25
100
AcDbCircle
 10
-1220.1559299197
 20
412.8781330201
 30
0.0
 40
3.230000000000015
100
AcDbArc
 50
90.5632122503
 51
180.0
  0
LINE
  5
478
330
1F
100
AcDbEntity
  8
0
  6
Continuous
 62
     7
370
    25
100
AcDbLine
 10
-788.5722524753
 20
419.1078320291
 30
0.0
 11
-788.6017417248
 21
416.1079769686
 31
0.0
  0
ARC
  5
479
330
1F
100
AcDbEntity
  8
0
  6
Continuous
 62
     7
370
    25
100
AcDbCircle
 10
-788.6334918169
 20
412.8781330201
 30
0.0
 40
6.230000000000132
100
AcDbArc
 50
0.0
 51
89.4367877497
  0
LINE
  5
47A
330
1F
100
AcDbEntity
  8
0
  6
Continuous
 62
     7
370
    25
100
AcDbLine
 10
-782.4034918169
 20
412.8781330201
 30
0.0
 11
-785.4034918169
 21
412.8781330201
 31
0.0
  0
ARC
  5
47B
330
1F
100
AcDbEntity
  8
0
  6
Continuous
 62
     7
370
    25
100
AcDbCircle
 10
-788.6334918169
 20
412.8781330201
 30
0.0
 40
3.230000000000132
100
AcDbArc
 50
360.0
 51
89.4367877497
  0
SPLINE
  5
47C
330
1F
100
AcDbEntity
  8
0
  6
Continuous
 62
     7
370
    25
100
AcDbSpline
210
0.0
220
0.0
230
1.0
 70
     8
 71
     3
 72
     8
 73
     4
 74
     0
 42
0.000000001
 43
0.00000001
 40
0.0
 40
0.0
 40
0.0
 40
0.0
 40
1.0
 40
1.0
 40
1.0
 40
1.0
 10
-788.5722524752883
 20
419.1078320291372
 30
0.0
 10
-788.592664931656
 20
419.1080326881715
 30
0.0
 10
-788.6130783742431
 20
419.1081330201123
 30
0.0
 10
-788.6334918168502
 20
419.1081330201123
 30
0.0
  0
ARC
  5
47D
330
1F
100
AcDbEntity
  8
0
  6
Continuous
 62
     7
370
    25
100
AcDbCircle
 10
-1216.7659299197
 20
257.1990395376
 30
0.0
 40
6.620000000000034
100
AcDbArc
 50
180.0
 51
225.0
  0
LINE
  5
47E
330
1F
100
AcDbEntity
  8
0
  6
Continuous
 62
     7
370
    25
100
AcDbLine
 10
-1223.5682971548
 20
250.3966723025
 30
0.0
 11
-1221.4469768112
 21
252.5179926461
 31
0.0
  0
ARC
  5
47F
330
1F
100
AcDbEntity
  8
0
  6
Continuous
 62
     7
370
    25
100
AcDbCircle
 10
-1216.7659299197
 20
257.1990395376
 30
0.0
 40
9.620000000000138
100
AcDbArc
 50
180.0
 51
225.0
  0
LINE
  5
480
330
1F
100
AcDbEntity
  8
0
  6
Continuous
 62
     7
370
    25
100
AcDbLine
 10
-1226.3859299197
 20
257.1990395376
 30
0.0
 11
-1223.3859299197
 21
257.1990395376
 31
0.0
  0
LINE
  5
481
330
1F
100
AcDbEntity
  8
0
  6
Continuous
 62
     7
370
    25
100
AcDbLine
 10
-794.3803892078
 20
238.4953138937
 30
0.0
 11
-797.3803892078
 21
238.4953138937
 31
0.0
  0
ARC
  5
482
330
1F
100
AcDbEntity
  8
0
  6
Continuous
 62
     7
370
    25
100
AcDbCircle
 10
-787.7603892078
 20
238.4953138937
 30
0.0
 40
9.620000000000005
100
AcDbArc
 50
135.0
 51
180.0
  0
LINE
  5
483
330
1F
100
AcDbEntity
  8
0
  6
Continuous
 62
     7
370
    25
100
AcDbLine
 10
-792.4414360992
 20
243.1763607852
 30
0.0
 11
-794.5627564428
 21
245.2976811287
 31
0.0
  0
ARC
  5
484
330
1F
100
AcDbEntity
  8
0
  6
Continuous
 62
     7
370
    25
100
AcDbCircle
 10
-787.7603892078
 20
238.4953138937
 30
0.0
 40
6.620000000000005
100
AcDbArc
 50
135.0
 51
180.0
  0
LINE
  5
485
330
1F
100
AcDbEntity
  8
0
  6
Continuous
 62
     7
370
    25
100
AcDbLine
 10
-785.4034918169
 20
412.8781330201
 30
0.0
 11
-785.4034918169
 21
257.1990395376
 31
0.0
  0
LINE
  5
486
330
1F
100
AcDbEntity
  8
0
  6
Continuous
 62
     7
370
    25
100
AcDbLine
 10
-782.4034918169
 20
257.1990395376
 30
0.0
 11
-785.4034918169
 21
257.1990395376
 31
0.0
  0
LINE
  5
487
330
1F
100
AcDbEntity
  8
0
  6
Continuous
 62
     7
370
    25
100
AcDbLine
 10
-782.4034918169
 20
412.8781330201
 30
0.0
 11
-782.4034918169
 21
257.1990395376
 31
0.0
  0
LINE
  5
488
330
1F
100
AcDbEntity
  8
0
  6
Continuous
 62
     7
370
    25
100
AcDbLine
 10
-797.3803892078
 20
31.0897826575
 30
0.0
 11
-794.3803892078
 21
31.0897826575
 31
0.0
  0
LINE
  5
489
330
1F
100
AcDbEntity
  8
0
  6
Continuous
 62
     7
370
    25
100
AcDbLine
 10
-794.3803892078
 20
238.4953138937
 30
0.0
 11
-794.3803892078
 21
31.0897826575
 31
0.0
  0
LINE
  5
48A
330
1F
100
AcDbEntity
  8
0
  6
Continuous
 62
     7
370
    25
100
AcDbLine
 10
-797.3803892078
 20
238.4953138937
 30
0.0
 11
-797.3803892078
 21
31.0897826575
 31
0.0
  0
LINE
  5
48B
330
1F
100
AcDbEntity
  8
0
  6
Continuous
 62
     7
370
    25
100
AcDbLine
 10
-1211.4090325288
 20
238.4953138937
 30
0.0
 11
-1214.4090325288
 21
238.4953138937
 31
0.0
  0
ARC
  5
48C
330
1F
100
AcDbEntity
  8
0
  6
Continuous
 62
     7
370
    25
100
AcDbCircle
 10
-1221.0290325288
 20
238.4953138937
 30
0.0
 40
6.620000000000075
100
AcDbArc
 50
0.0
 51
45.0
  0
LINE
  5
48D
330
1F
100
AcDbEntity
  8
0
  6
Continuous
 62
     7
370
    25
100
AcDbLine
 10
-1214.2266652938
 20
245.2976811287
 30
0.0
 11
-1216.3479856374
 21
243.1763607852
 31
0.0
  0
ARC
  5
48E
330
1F
100
AcDbEntity
  8
0
  6
Continuous
 62
     7
370
    25
100
AcDbCircle
 10
-1221.0290325288
 20
238.4953138937
 30
0.0
 40
9.620000000000138
100
AcDbArc
 50
0.0
 51
45.0
  0
ARC
  5
48F
330
1F
100
AcDbEntity
  8
0
  6
Continuous
 62
     7
370
    25
100
AcDbCircle
 10
-792.0234918169
 20
257.1990395376
 30
0.0
 40
6.620000000000118
100
AcDbArc
 50
315.0
 51
0.0
  0
ARC
  5
490
330
1F
100
AcDbEntity
  8
0
  6
Continuous
 62
     7
370
    25
100
AcDbCircle
 10
-792.0234918169
 20
257.1990395376
 30
0.0
 40
9.620000000000118
100
AcDbArc
 50
315.0
 51
0.0
  0
LINE
  5
491
330
1F
100
AcDbEntity
  8
0
  6
Continuous
 62
     7
370
    25
100
AcDbLine
 10
-785.2211245818
 20
250.3966723025
 30
0.0
 11
-787.3424449254
 21
252.5179926461
 31
0.0
  0
LINE
  5
492
330
1F
100
AcDbEntity
  8
0
  6
Continuous
 62
     7
370
    25
100
AcDbLine
 10
-1223.3859299197
 20
257.1990395376
 30
0.0
 11
-1223.3859299197
 21
412.8781330201
 31
0.0
  0
LINE
  5
493
330
1F
100
AcDbEntity
  8
0
  6
Continuous
 62
     7
370
    25
100
AcDbLine
 10
-1226.3859299197
 20
257.1990395376
 30
0.0
 11
-1226.3859299197
 21
412.8781330201
 31
0.0
  0
LINE
  5
494
330
1F
100
AcDbEntity
  8
0
  6
Continuous
 62
     7
370
    25
100
AcDbLine
 10
-785.2211245818
 20
250.3966723025
 30
0.0
 11
-792.4414360992
 21
243.1763607852
 31
0.0
  0
LINE
  5
495
330
1F
100
AcDbEntity
  8
0
  6
Continuous
 62
     7
370
    25
100
AcDbLine
 10
-787.3424449254
 20
252.5179926461
 30
0.0
 11
-794.5627564428
 21
245.2976811287
 31
0.0
  0
LINE
  5
496
330
1F
100
AcDbEntity
  8
0
  6
Continuous
 62
     7
370
    25
100
AcDbLine
 10
-1211.4090325288
 20
31.0897826575
 30
0.0
 11
-1214.4090325288
 21
31.0897826575
 31
0.0
  0
LINE
  5
497
330
1F
100
AcDbEntity
  8
0
  6
Continuous
 62
     7
370
    25
100
AcDbLine
 10
-1211.4090325288
 20
31.0897826575
 30
0.0
 11
-1211.4090325288
 21
238.4953138937
 31
0.0
  0
LINE
  5
498
330
1F
100
AcDbEntity
  8
0
  6
Continuous
 62
     7
370
    25
100
AcDbLine
 10
-1214.4090325288
 20
31.0897826575
 30
0.0
 11
-1214.4090325288
 21
238.4953138937
 31
0.0
  0
LINE
  5
499
330
1F
100
AcDbEntity
  8
0
  6
Continuous
 62
     7
370
    25
100
AcDbLine
 10
-1214.2266652938
 20
245.2976811287
 30
0.0
 11
-1221.4469768112
 21
252.5179926461
 31
0.0
  0
LINE
  5
49A
330
1F
100
AcDbEntity
  8
0
  6
Continuous
 62
     7
370
    25
100
AcDbLine
 10
-1216.3479856374
 20
243.1763607852
 30
0.0
 11
-1223.5682971548
 21
250.3966723025
 31
0.0
  0
LINE
  5
49B
330
1F
100
AcDbEntity
  8
0
  6
Continuous
 62
     7
370
    25
100
AcDbLine
 10
-1211.4090325288
 20
21.0897826575
 30
0.0
 11
-1214.4090325288
 21
21.0897826575
 31
0.0
  0
LINE
  5
49C
330
1F
100
AcDbEntity
  8
0
  6
Continuous
 62
     7
370
    25
100
AcDbLine
 10
-1211.4090325288
 20
21.0897826575
 30
0.0
 11
-1211.4090325288
 21
31.0897826575
 31
0.0
  0
LINE
  5
49D
330
1F
100
AcDbEntity
  8
0
  6
Continuous
 62
     7
370
    25
100
AcDbLine
 10
-1214.4090325288
 20
21.0897826575
 30
0.0
 11
-1214.4090325288
 21
31.0897826575
 31
0.0
  0
LINE
  5
49E
330
1F
100
AcDbEntity
  8
0
  6
Continuous
 62
     7
370
    25
100
AcDbLine
 10
-797.3803892078
 20
21.0897826575
 30
0.0
 11
-794.3803892078
 21
21.0897826575
 31
0.0
  0
LINE
  5
49F
330
1F
100
AcDbEntity
  8
0
  6
Continuous
 62
     7
370
    25
100
AcDbLine
 10
-794.3803892078
 20
21.0897826575
 30
0.0
 11
-794.3803892078
 21
31.0897826575
 31
0.0
  0
LINE
  5
4A0
330
1F
100
AcDbEntity
  8
0
  6
Continuous
 62
     7
370
    25
100
AcDbLine
 10
-797.3803892078
 20
21.0897826575
 30
0.0
 11
-797.3803892078
 21
31.0897826575
 31
0.0
  0
LINE
  5
4A1
330
1F
100
AcDbEntity
  8
0
  6
Continuous
 62
     7
370
    25
100
AcDbLine
 10
-1220.1486859802
 20
419.1081330201
 30
0.0
 11
-1220.1559299197
 21
419.1081330201
 31
0.0
  0
LINE
  5
4A2
330
1F
100
AcDbEntity
  8
0
  6
Continuous
 62
     7
370
    25
100
AcDbLine
 10
-788.6334918169
 20
419.1081330201
 30
0.0
 11
-788.6407357564
 21
419.1081330201
 31
0.0
  0
LINE
  5
4A3
330
1F
100
AcDbEntity
  8
0
  6
Continuous
 62
     7
370
    25
100
AcDbLine
 10
-687.7948724304
 20
412.8781330201
 30
0.0
 11
-687.7948724304
 21
419.1078320291
 31
0.0
  0
SPLINE
  5
4A4
330
1F
100
AcDbEntity
  8
0
  6
Continuous
 62
     7
370
    25
100
AcDbSpline
210
0.0
220
0.0
230
1.0
 70
     8
 71
     3
 72
     8
 73
     4
 74
     0
 42
0.000000001
 43
0.00000001
 40
0.0
 40
0.0
 40
0.0
 40
0.0
 40
1.0
 40
1.0
 40
1.0
 40
1.0
 10
-687.7948724303654
 20
419.1078320291372
 30
0.0
 10
-687.7888144976944
 20
419.1080326881715
 30
0.0
 10
-687.7827565758682
 20
419.1081330201123
 30
0.0
 10
-687.7766986648774
 20
419.1081330201123
 30
0.0
  0
LINE
  5
4A5
330
1F
100
AcDbEntity
  8
0
  6
Continuous
 62
     7
370
    25
100
AcDbLine
 10
-687.7766986649
 20
419.1081330201
 30
0.0
 11
-617.8130461959
 21
419.1081330201
 31
0.0
  0
SPLINE
  5
4A6
330
1F
100
AcDbEntity
  8
0
  6
Continuous
 62
     7
370
    25
100
AcDbSpline
210
0.0
220
0.0
230
1.0
 70
     8
 71
     3
 72
     8
 73
     4
 74
     0
 42
0.000000001
 43
0.00000001
 40
0.0
 40
0.0
 40
0.0
 40
0.0
 40
1.0
 40
1.0
 40
1.0
 40
1.0
 10
-617.8130461958534
 20
419.1081330201123
 30
0.0
 10
-617.8069882631828
 20
419.1081330201123
 30
0.0
 10
-617.8009303413568
 20
419.1080326881715
 30
0.0
 10
-617.7948724303653
 20
419.1078320291372
 30
0.0
  0
LINE
  5
4A7
330
1F
100
AcDbEntity
  8
0
  6
Continuous
 62
     7
370
    25
100
AcDbLine
 10
-617.7948724304
 20
419.1078320291
 30
0.0
 11
-617.7948724304
 21
412.8781330201
 31
0.0
  0
LINE
  5
4A8
330
1F
100
AcDbEntity
  8
0
  6
Continuous
 62
     7
370
    25
100
AcDbLine
 10
-687.7948724304
 20
412.8781330201
 30
0.0
 11
-617.7948724304
 21
412.8781330201
 31
0.0
  0
LINE
  5
4A9
330
1F
100
AcDbEntity
  8
0
  6
Continuous
 62
     7
370
    25
100
AcDbLine
 10
-617.7948724304
 20
257.1990395376
 30
0.0
 11
-617.7948724304
 21
412.8781330201
 31
0.0
  0
LINE
  5
4AA
330
1F
100
AcDbEntity
  8
0
  6
Continuous
 62
     7
370
    25
100
AcDbLine
 10
-687.7948724304
 20
257.1990395376
 30
0.0
 11
-617.7948724304
 21
257.1990395376
 31
0.0
  0
LINE
  5
4AB
330
1F
100
AcDbEntity
  8
0
  6
Continuous
 62
     7
370
    25
100
AcDbLine
 10
-687.7948724304
 20
412.8781330201
 30
0.0
 11
-687.7948724304
 21
257.1990395376
 31
0.0
  0
LINE
  5
4AC
330
1F
100
AcDbEntity
  8
0
  6
Continuous
 62
     7
370
    25
100
AcDbLine
 10
-687.7948724304
 20
250.3966723025
 30
0.0
 11
-617.7948724304
 21
250.3966723025
 31
0.0
  0
LINE
  5
4AD
330
1F
100
AcDbEntity
  8
0
  6
Continuous
 62
     7
370
    25
100
AcDbLine
 10
-687.7948724304
 20
250.3966723025
 30
0.0
 11
-687.7948724304
 21
257.1990395376
 31
0.0
  0
LINE
  5
4AE
330
1F
100
AcDbEntity
  8
0
  6
Continuous
 62
     7
370
    25
100
AcDbLine
 10
-617.7948724304
 20
257.1990395376
 30
0.0
 11
-617.7948724304
 21
250.3966723025
 31
0.0
  0
LINE
  5
4AF
330
1F
100
AcDbEntity
  8
0
  6
Continuous
 62
     7
370
    25
100
AcDbLine
 10
-617.7948724304
 20
243.1763607852
 30
0.0
 11
-617.7948724304
 21
250.3966723025
 31
0.0
  0
LINE
  5
4B0
330
1F
100
AcDbEntity
  8
0
  6
Continuous
 62
     7
370
    25
100
AcDbLine
 10
-617.7948724304
 20
243.1763607852
 30
0.0
 11
-687.7948724304
 21
243.1763607852
 31
0.0
  0
LINE
  5
4B1
330
1F
100
AcDbEntity
  8
0
  6
Continuous
 62
     7
370
    25
100
AcDbLine
 10
-687.7948724304
 20
250.3966723025
 30
0.0
 11
-687.7948724304
 21
243.1763607852
 31
0.0
  0
LINE
  5
4B2
330
1F
100
AcDbEntity
  8
0
  6
Continuous
 62
     7
370
    25
100
AcDbLine
 10
-694.021310184
 20
412.8781330201
 30
0.0
 11
-691.021310184
 21
412.8781330201
 31
0.0
  0
ARC
  5
4B3
330
1F
100
AcDbEntity
  8
0
  6
Continuous
 62
     7
370
    25
100
AcDbCircle
 10
-687.791310184
 20
412.8781330201
 30
0.0
 40
6.230000000000016
100
AcDbArc
 50
90.4966176822
 51
180.0
  0
LINE
  5
4B4
330
1F
100
AcDbEntity
  8
0
  6
Continuous
 62
     7
370
    25
100
AcDbLine
 10
-687.8453087411
 20
419.1078989993
 30
0.0
 11
-687.8193062256
 21
416.1080116899
 31
0.0
  0
ARC
  5
4B5
330
1F
100
AcDbEntity
  8
0
  6
Continuous
 62
     7
370
    25
100
AcDbCircle
 10
-687.791310184
 20
412.8781330201
 30
0.0
 40
3.230000000000013
100
AcDbArc
 50
90.4966176822
 51
180.0
  0
SPLINE
  5
4B6
330
1F
100
AcDbEntity
  8
0
  6
Continuous
 62
     7
370
    25
100
AcDbSpline
210
0.0
220
0.0
230
1.0
 70
     8
 71
     3
 72
     8
 73
     4
 74
     0
 42
0.000000001
 43
0.00000001
 40
0.0
 40
0.0
 40
0.0
 40
0.0
 40
1.0
 40
1.0
 40
1.0
 40
1.0
 10
-687.7913101840109
 20
419.1081330201123
 30
0.0
 10
-687.8093099284185
 20
419.1081330201123
 30
0.0
 10
-687.8273096728158
 20
419.1080550122085
 30
0.0
 10
-687.8453087410887
 20
419.1078989993312
 30
0.0
  0
SPLINE
  5
4B7
330
1F
100
AcDbEntity
  8
0
  6
Continuous
 62
     7
370
    25
100
AcDbSpline
210
0.0
220
0.0
230
1.0
 70
     8
 71
     3
 72
     8
 73
     4
 74
     0
 42
0.000000001
 43
0.00000001
 40
0.0
 40
0.0
 40
0.0
 40
0.0
 40
1.0
 40
1.0
 40
1.0
 40
1.0
 10
-617.744436119642
 20
419.1078989993312
 30
0.0
 10
-617.7624351879138
 20
419.1080550122085
 30
0.0
 10
-617.7804349323109
 20
419.1081330201123
 30
0.0
 10
-617.79843467672
 20
419.1081330201123
 30
0.0
  0
LINE
  5
4B8
330
1F
100
AcDbEntity
  8
0
  6
Continuous
 62
     7
370
    25
100
AcDbLine
 10
-617.7444361196
 20
419.1078989993
 30
0.0
 11
-617.7704386351
 21
416.1080116899
 31
0.0
  0
LINE
  5
4B9
330
1F
100
AcDbEntity
  8
0
  6
Continuous
 62
     7
370
    25
100
AcDbLine
 10
-611.5684346767
 20
412.8781330201
 30
0.0
 11
-614.5684346767
 21
412.8781330201
 31
0.0
  0
ARC
  5
4BA
330
1F
100
AcDbEntity
  8
0
  6
Continuous
 62
     7
370
    25
100
AcDbCircle
 10
-617.7984346767
 20
412.8781330201
 30
0.0
 40
3.230000000000132
100
AcDbArc
 50
0.0
 51
89.5033823178
  0
ARC
  5
4BB
330
1F
100
AcDbEntity
  8
0
  6
Continuous
 62
     7
370
    25
100
AcDbCircle
 10
-617.7984346767
 20
412.8781330201
 30
0.0
 40
6.230000000000132
100
AcDbArc
 50
0.0
 51
89.5033823178
  0
LINE
  5
4BC
330
1F
100
AcDbEntity
  8
0
  6
Continuous
 62
     7
370
    25
100
AcDbLine
 10
-691.021310184
 20
407.1045707738
 30
0.0
 11
-691.021310184
 21
412.8781330201
 31
0.0
  0
LINE
  5
4BD
330
1F
100
AcDbEntity
  8
0
  6
Continuous
 62
     7
370
    25
100
AcDbLine
 10
-691.021310184
 20
407.1045707738
 30
0.0
 11
-694.021310184
 21
407.1045707738
 31
0.0
  0
LINE
  5
4BE
330
1F
100
AcDbEntity
  8
0
  6
Continuous
 62
     7
370
    25
100
AcDbLine
 10
-694.021310184
 20
407.1045707738
 30
0.0
 11
-694.021310184
 21
412.8781330201
 31
0.0
  0
LINE
  5
4BF
330
1F
100
AcDbEntity
  8
0
  6
Continuous
 62
     7
370
    25
100
AcDbLine
 10
-691.021310184
 20
404.1045707738
 30
0.0
 11
-694.021310184
 21
404.1045707738
 31
0.0
  0
LINE
  5
4C0
330
1F
100
AcDbEntity
  8
0
  6
Continuous
 62
     7
370
    25
100
AcDbLine
 10
-694.021310184
 20
404.1045707738
 30
0.0
 11
-694.021310184
 21
407.1045707738
 31
0.0
  0
LINE
  5
4C1
330
1F
100
AcDbEntity
  8
0
  6
Continuous
 62
     7
370
    25
100
AcDbLine
 10
-691.021310184
 20
404.1045707738
 30
0.0
 11
-691.021310184
 21
407.1045707738
 31
0.0
  0
LINE
  5
4C2
330
1F
100
AcDbEntity
  8
0
  6
Continuous
 62
     7
370
    25
100
AcDbLine
 10
-614.5684346767
 20
407.1045707738
 30
0.0
 11
-611.5684346767
 21
407.1045707738
 31
0.0
  0
LINE
  5
4C3
330
1F
100
AcDbEntity
  8
0
  6
Continuous
 62
     7
370
    25
100
AcDbLine
 10
-611.5684346767
 20
412.8781330201
 30
0.0
 11
-611.5684346767
 21
407.1045707738
 31
0.0
  0
LINE
  5
4C4
330
1F
100
AcDbEntity
  8
0
  6
Continuous
 62
     7
370
    25
100
AcDbLine
 10
-614.5684346767
 20
412.8781330201
 30
0.0
 11
-614.5684346767
 21
407.1045707738
 31
0.0
  0
LINE
  5
4C5
330
1F
100
AcDbEntity
  8
0
  6
Continuous
 62
     7
370
    25
100
AcDbLine
 10
-614.5684346767
 20
404.1045707738
 30
0.0
 11
-611.5684346767
 21
404.1045707738
 31
0.0
  0
LINE
  5
4C6
330
1F
100
AcDbEntity
  8
0
  6
Continuous
 62
     7
370
    25
100
AcDbLine
 10
-611.5684346767
 20
407.1045707738
 30
0.0
 11
-611.5684346767
 21
404.1045707738
 31
0.0
  0
LINE
  5
4C7
330
1F
100
AcDbEntity
  8
0
  6
Continuous
 62
     7
370
    25
100
AcDbLine
 10
-614.5684346767
 20
407.1045707738
 30
0.0
 11
-614.5684346767
 21
404.1045707738
 31
0.0
  0
LINE
  5
4C8
330
1F
100
AcDbEntity
  8
0
  6
Continuous
 62
     7
370
    25
100
AcDbLine
 10
-687.7766986649
 20
419.1081330201
 30
0.0
 11
-687.791310184
 21
419.1081330201
 31
0.0
  0
LINE
  5
4C9
330
1F
100
AcDbEntity
  8
0
  6
Continuous
 62
     7
370
    25
100
AcDbLine
 10
-617.7984346767
 20
419.1081330201
 30
0.0
 11
-617.8130461959
 21
419.1081330201
 31
0.0
  0
LINE
  5
4CA
330
1F
100
AcDbEntity
  8
0
  6
Continuous
 62
     7
370
    25
100
AcDbLine
 10
-617.7948724304
 20
243.1763607852
 30
0.0
 11
-617.7948724304
 21
238.4953138937
 31
0.0
  0
LINE
  5
4CB
330
1F
100
AcDbEntity
  8
0
  6
Continuous
 62
     7
370
    25
100
AcDbLine
 10
-617.7948724304
 20
238.4953138937
 30
0.0
 11
-687.7948724304
 21
238.4953138937
 31
0.0
  0
LINE
  5
4CC
330
1F
100
AcDbEntity
  8
0
  6
Continuous
 62
     7
370
    25
100
AcDbLine
 10
-687.7948724304
 20
238.4953138937
 30
0.0
 11
-687.7948724304
 21
243.1763607852
 31
0.0
  0
CIRCLE
  5
4CD
330
1F
100
AcDbEntity
  8
0
  6
Continuous
 62
     7
370
    25
100
AcDbCircle
 10
-652.7948724304
 20
56.0897826575
 30
0.0
 40
5.249999999999758
  0
ARC
  5
4CE
330
1F
100
AcDbEntity
  8
0
  6
Continuous
 62
     7
370
    25
100
AcDbCircle
 10
-652.7948724303
 20
134.0897826575
 30
0.0
 40
5.250000000000172
100
AcDbArc
 50
324.2150958564
 51
206.8806191316
  0
ARC
  5
4CF
330
1F
100
AcDbEntity
  8
0
  6
Continuous
 62
     7
370
    25
100
AcDbCircle
 10
-661.0078449117
 20
129.0897826575
 30
0.0
 40
4.399999999996838
100
AcDbArc
 50
323.3527498139
 51
36.6472501851
  0
ARC
  5
4D0
330
1F
100
AcDbEntity
  8
0
  6
Continuous
 62
     7
370
    25
100
AcDbCircle
 10
-652.7948724304
 20
124.0897826575
 30
0.0
 40
5.24999999999933
100
AcDbArc
 50
153.1193808679
 51
215.7849041431
  0
ARC
  5
4D1
330
1F
100
AcDbEntity
  8
0
  6
Continuous
 62
     7
370
    25
100
AcDbCircle
 10
-661.0078449117
 20
119.0897826575
 30
0.0
 40
4.400000000000299
100
AcDbArc
 50
323.3527498151
 51
26.0182730903
  0
ARC
  5
4D2
330
1F
100
AcDbEntity
  8
0
  6
Continuous
 62
     7
370
    25
100
AcDbCircle
 10
-652.7948724304
 20
114.0897826575
 30
0.0
 40
5.249999999999539
100
AcDbArc
 50
153.1193808679
 51
215.7849041431
  0
ARC
  5
4D3
330
1F
100
AcDbEntity
  8
0
  6
Continuous
 62
     7
370
    25
100
AcDbCircle
 10
-661.0078449117
 20
109.0897826575
 30
0.0
 40
4.400000000000196
100
AcDbArc
 50
323.3527498151
 51
26.0182730903
  0
ARC
  5
4D4
330
1F
100
AcDbEntity
  8
0
  6
Continuous
 62
     7
370
    25
100
AcDbCircle
 10
-652.7948724303
 20
104.0897826575
 30
0.0
 40
5.249999999999595
100
AcDbArc
 50
153.119380869
 51
206.8806191322
  0
ARC
  5
4D5
330
1F
100
AcDbEntity
  8
0
  6
Continuous
 62
     7
370
    25
100
AcDbCircle
 10
-661.0078449117
 20
99.0897826575
 30
0.0
 40
4.39999999999986
100
AcDbArc
 50
323.3527498139
 51
36.647250185
  0
ARC
  5
4D6
330
1F
100
AcDbEntity
  8
0
  6
Continuous
 62
     7
370
    25
100
AcDbCircle
 10
-652.7948724303
 20
94.0897826575
 30
0.0
 40
5.249999999999583
100
AcDbArc
 50
153.119380869
 51
206.8806191322
  0
ARC
  5
4D7
330
1F
100
AcDbEntity
  8
0
  6
Continuous
 62
     7
370
    25
100
AcDbCircle
 10
-661.0078449117
 20
89.0897826575
 30
0.0
 40
4.399999999999991
100
AcDbArc
 50
323.3527498139
 51
36.647250185
  0
ARC
  5
4D8
330
1F
100
AcDbEntity
  8
0
  6
Continuous
 62
     7
370
    25
100
AcDbCircle
 10
-652.7948724303
 20
84.0897826575
 30
0.0
 40
5.250000000000018
100
AcDbArc
 50
153.1193808689
 51
26.8806191311
  0
ARC
  5
4D9
330
1F
100
AcDbEntity
  8
0
  6
Continuous
 62
     7
370
    25
100
AcDbCircle
 10
-644.581899949
 20
89.0897826575
 30
0.0
 40
4.40000000000236
100
AcDbArc
 50
143.3527498149
 51
216.647250186
  0
ARC
  5
4DA
330
1F
100
AcDbEntity
  8
0
  6
Continuous
 62
     7
370
    25
100
AcDbCircle
 10
-652.7948724303
 20
94.0897826575
 30
0.0
 40
5.250000000000854
100
AcDbArc
 50
333.1193808678
 51
26.8806191311
  0
ARC
  5
4DB
330
1F
100
AcDbEntity
  8
0
  6
Continuous
 62
     7
370
    25
100
AcDbCircle
 10
-644.581899949
 20
99.0897826575
 30
0.0
 40
4.400000000000094
100
AcDbArc
 50
143.3527498149
 51
216.647250186
  0
ARC
  5
4DC
330
1F
100
AcDbEntity
  8
0
  6
Continuous
 62
     7
370
    25
100
AcDbCircle
 10
-652.7948724303
 20
104.0897826575
 30
0.0
 40
5.250000000000402
100
AcDbArc
 50
333.1193808678
 51
26.8806191311
  0
ARC
  5
4DD
330
1F
100
AcDbEntity
  8
0
  6
Continuous
 62
     7
370
    25
100
AcDbCircle
 10
-644.581899949
 20
109.0897826575
 30
0.0
 40
4.400000000000035
100
AcDbArc
 50
153.9817269108
 51
216.6472501861
  0
ARC
  5
4DE
330
1F
100
AcDbEntity
  8
0
  6
Continuous
 62
     7
370
    25
100
AcDbCircle
 10
-652.7948724304
 20
114.0897826575
 30
0.0
 40
5.250000000035651
100
AcDbArc
 50
324.2150958569
 51
26.8806191317
  0
ARC
  5
4DF
330
1F
100
AcDbEntity
  8
0
  6
Continuous
 62
     7
370
    25
100
AcDbCircle
 10
-644.581899949
 20
119.0897826575
 30
0.0
 40
4.400000000042025
100
AcDbArc
 50
153.9817269108
 51
216.647250186
  0
ARC
  5
4E0
330
1F
100
AcDbEntity
  8
0
  6
Continuous
 62
     7
370
    25
100
AcDbCircle
 10
-652.7948724304
 20
124.0897826575
 30
0.0
 40
5.250000000036155
100
AcDbArc
 50
324.2150958569
 51
26.8806191317
  0
ARC
  5
4E1
330
1F
100
AcDbEntity
  8
0
  6
Continuous
 62
     7
370
    25
100
AcDbCircle
 10
-644.581899949
 20
129.0897826575
 30
0.0
 40
4.400000000041514
100
AcDbArc
 50
153.9817269103
 51
216.6472501854
  0
ARC
  5
4E2
330
1F
100
AcDbEntity
  8
0
  6
Continuous
 62
     7
370
    25
100
AcDbCircle
 10
-652.7948724303
 20
209.0897826575
 30
0.0
 40
5.250000000000198
100
AcDbArc
 50
324.2150958564
 51
206.8806191316
  0
ARC
  5
4E3
330
1F
100
AcDbEntity
  8
0
  6
Continuous
 62
     7
370
    25
100
AcDbCircle
 10
-661.0078449117
 20
204.0897826575
 30
0.0
 40
4.399999999997013
100
AcDbArc
 50
323.3527498139
 51
36.6472501851
  0
ARC
  5
4E4
330
1F
100
AcDbEntity
  8
0
  6
Continuous
 62
     7
370
    25
100
AcDbCircle
 10
-652.7948724304
 20
199.0897826575
 30
0.0
 40
5.249999999998856
100
AcDbArc
 50
153.1193808679
 51
215.7849041431
  0
ARC
  5
4E5
330
1F
100
AcDbEntity
  8
0
  6
Continuous
 62
     7
370
    25
100
AcDbCircle
 10
-661.0078449117
 20
194.0897826575
 30
0.0
 40
4.400000000000285
100
AcDbArc
 50
323.3527498151
 51
26.0182730903
  0
ARC
  5
4E6
330
1F
100
AcDbEntity
  8
0
  6
Continuous
 62
     7
370
    25
100
AcDbCircle
 10
-652.7948724304
 20
189.0897826575
 30
0.0
 40
5.24999999999878
100
AcDbArc
 50
153.1193808679
 51
215.7849041431
  0
ARC
  5
4E7
330
1F
100
AcDbEntity
  8
0
  6
Continuous
 62
     7
370
    25
100
AcDbCircle
 10
-661.0078449117
 20
184.0897826575
 30
0.0
 40
4.400000000000444
100
AcDbArc
 50
323.3527498151
 51
26.0182730903
  0
ARC
  5
4E8
330
1F
100
AcDbEntity
  8
0
  6
Continuous
 62
     7
370
    25
100
AcDbCircle
 10
-652.7948724304
 20
179.0897826574
 30
0.0
 40
5.249999999998867
100
AcDbArc
 50
153.1193808678
 51
206.8806191311
  0
ARC
  5
4E9
330
1F
100
AcDbEntity
  8
0
  6
Continuous
 62
     7
370
    25
100
AcDbCircle
 10
-661.0078449117
 20
174.0897826575
 30
0.0
 40
4.400000000000056
100
AcDbArc
 50
323.352749815
 51
36.647250186
  0
ARC
  5
4EA
330
1F
100
AcDbEntity
  8
0
  6
Continuous
 62
     7
370
    25
100
AcDbCircle
 10
-652.7948724304
 20
169.0897826574
 30
0.0
 40
5.249999999999038
100
AcDbArc
 50
153.1193808678
 51
206.880619131
  0
ARC
  5
4EB
330
1F
100
AcDbEntity
  8
0
  6
Continuous
 62
     7
370
    25
100
AcDbCircle
 10
-661.0078449117
 20
164.0897826575
 30
0.0
 40
4.400000000000172
100
AcDbArc
 50
323.352749815
 51
36.6472501861
  0
ARC
  5
4EC
330
1F
100
AcDbEntity
  8
0
  6
Continuous
 62
     7
370
    25
100
AcDbCircle
 10
-652.7948724303
 20
159.0897826575
 30
0.0
 40
5.249999999999832
100
AcDbArc
 50
153.1193808689
 51
26.8806191311
  0
ARC
  5
4ED
330
1F
100
AcDbEntity
  8
0
  6
Continuous
 62
     7
370
    25
100
AcDbCircle
 10
-644.581899949
 20
164.0897826575
 30
0.0
 40
4.40000000000227
100
AcDbArc
 50
143.3527498149
 51
216.647250186
  0
ARC
  5
4EE
330
1F
100
AcDbEntity
  8
0
  6
Continuous
 62
     7
370
    25
100
AcDbCircle
 10
-652.7948724304
 20
169.0897826574
 30
0.0
 40
5.250000000043899
100
AcDbArc
 50
333.119380869
 51
26.8806191318
  0
ARC
  5
4EF
330
1F
100
AcDbEntity
  8
0
  6
Continuous
 62
     7
370
    25
100
AcDbCircle
 10
-644.581899949
 20
174.0897826575
 30
0.0
 40
4.400000000042189
100
AcDbArc
 50
143.3527498149
 51
216.6472501859
  0
ARC
  5
4F0
330
1F
100
AcDbEntity
  8
0
  6
Continuous
 62
     7
370
    25
100
AcDbCircle
 10
-652.7948724304
 20
179.0897826574
 30
0.0
 40
5.250000000043324
100
AcDbArc
 50
333.119380869
 51
26.8806191318
  0
ARC
  5
4F1
330
1F
100
AcDbEntity
  8
0
  6
Continuous
 62
     7
370
    25
100
AcDbCircle
 10
-644.581899949
 20
184.0897826575
 30
0.0
 40
4.400000000041876
100
AcDbArc
 50
153.9817269108
 51
216.647250186
  0
ARC
  5
4F2
330
1F
100
AcDbEntity
  8
0
  6
Continuous
 62
     7
370
    25
100
AcDbCircle
 10
-652.7948724304
 20
189.0897826575
 30
0.0
 40
5.25000000003615
100
AcDbArc
 50
324.2150958569
 51
26.8806191317
  0
ARC
  5
4F3
330
1F
100
AcDbEntity
  8
0
  6
Continuous
 62
     7
370
    25
100
AcDbCircle
 10
-644.581899949
 20
194.0897826575
 30
0.0
 40
4.400000000041889
100
AcDbArc
 50
153.9817269108
 51
216.647250186
  0
ARC
  5
4F4
330
1F
100
AcDbEntity
  8
0
  6
Continuous
 62
     7
370
    25
100
AcDbCircle
 10
-652.7948724304
 20
199.0897826575
 30
0.0
 40
5.250000000036328
100
AcDbArc
 50
324.2150958569
 51
26.8806191317
  0
ARC
  5
4F5
330
1F
100
AcDbEntity
  8
0
  6
Continuous
 62
     7
370
    25
100
AcDbCircle
 10
-644.581899949
 20
204.0897826575
 30
0.0
 40
4.400000000041781
100
AcDbArc
 50
153.9817269103
 51
216.6472501854
  0
LINE
  5
4F6
330
1F
100
AcDbEntity
  8
0
  6
Continuous
 62
     7
370
    25
100
AcDbLine
 10
-617.7948724304
 20
31.0897826575
 30
0.0
 11
-617.7948724304
 21
238.4953138937
 31
0.0
  0
ARC
  5
4F7
330
1F
100
AcDbEntity
  8
0
  6
Continuous
 62
     7
370
    25
100
AcDbCircle
 10
-627.7948724304
 20
31.0897826575
 30
0.0
 40
9.999999999999954
100
AcDbArc
 50
270.0
 51
0.0
  0
LINE
  5
4F8
330
1F
100
AcDbEntity
  8
0
  6
Continuous
 62
     7
370
    25
100
AcDbLine
 10
-677.7948724304
 20
21.0897826575
 30
0.0
 11
-627.7948724304
 21
21.0897826575
 31
0.0
  0
ARC
  5
4F9
330
1F
100
AcDbEntity
  8
0
  6
Continuous
 62
     7
370
    25
100
AcDbCircle
 10
-677.7948724304
 20
31.0897826575
 30
0.0
 40
10.0
100
AcDbArc
 50
180.0
 51
270.0
  0
LINE
  5
4FA
330
1F
100
AcDbEntity
  8
0
  6
Continuous
 62
     7
370
    25
100
AcDbLine
 10
-687.7948724304
 20
238.4953138937
 30
0.0
 11
-687.7948724304
 21
31.0897826575
 31
0.0
  0
INSERT
  5
506
330
1F
100
AcDbEntity
  8
0
  6
Continuous
 62
     7
420
 16777215
370
    18
100
AcDbBlockReference
  2
SW_CENTERMARKSYMBOL_7
 10
-652.7948724304
 20
56.0897826575
 30
0.0
  0
ENDSEC
  0
SECTION
  2
OBJECTS
  0
DICTIONARY
  5
C
330
0
100
AcDbDictionary
281
     1
  3
ACAD_DETAILVIEWSTYLE
350
510
  3
ACAD_GROUP
350
D
  3
ACAD_LAYOUT
350
1A
  3
ACAD_MATERIAL
350
43
  3
ACAD_MLEADERSTYLE
350
6B
  3
ACAD_MLINESTYLE
350
17
  3
ACAD_PLOTSETTINGS
350
19
  3
ACAD_PLOTSTYLENAME
350
E
  3
ACAD_SCALELIST
350
47
  3
ACAD_SECTIONVIEWSTYLE
350
511
  3
ACAD_TABLESTYLE
350
69
  3
ACDB_RECOMPOSE_DATA
350
50D
  3
AcDbVariableDictionary
350
507
  0
DICTIONARY
  5
510
102
{ACAD_REACTORS
330
C
102
}
330
C
100
AcDbDictionary
281
     1
  0
DICTIONARY
  5
D
102
{ACAD_REACTORS
330
C
102
}
330
C
100
AcDbDictionary
281
     1
  0
DICTIONARY
  5
1A
102
{ACAD_REACTORS
330
C
102
}
330
C
100
AcDbDictionary
281
     1
  3
Layout1
350
1E
  3
Layout2
350
26
  3
Model
350
22
  0
DICTIONARY
  5
43
102
{ACAD_REACTORS
330
C
102
}
330
C
100
AcDbDictionary
281
     1
  3
ByBlock
350
45
  3
ByLayer
350
44
  3
Global
350
46
  0
DICTIONARY
  5
6B
102
{ACAD_REACTORS
330
C
102
}
330
C
100
AcDbDictionary
281
     1
  3
Standard
350
6C
  0
DICTIONARY
  5
17
102
{ACAD_REACTORS
330
C
102
}
330
C
100
AcDbDictionary
281
     1
  3
Standard
350
18
  0
DICTIONARY
  5
19
102
{ACAD_REACTORS
330
C
102
}
330
C
100
AcDbDictionary
281
     1
  0
ACDBDICTIONARYWDFLT
  5
E
102
{ACAD_REACTORS
330
C
102
}
330
C
100
AcDbDictionary
281
     1
  3
Normal
350
F
100
AcDbDictionaryWithDefault
340
F
  0
DICTIONARY
  5
47
102
{ACAD_REACTORS
330
C
102
}
330
C
100
AcDbDictionary
281
     1
  3
A0
350
48
  3
A1
350
49
  3
A2
350
4A
  3
A3
350
4B
  3
A4
350
4C
  3
A5
350
4D
  3
A6
350
4E
  3
A7
350
4F
  3
A8
350
50
  3
A9
350
51
  3
B0
350
52
  3
B1
350
53
  3
B2
350
54
  3
B3
350
55
  3
B4
350
56
  3
B5
350
57
  3
B6
350
58
  3
B7
350
59
  3
B8
350
5A
  3
B9
350
5B
  3
C0
350
5C
  3
C1
350
5D
  3
C2
350
5E
  3
C3
350
5F
  3
C4
350
60
  3
C5
350
61
  3
C6
350
62
  3
C7
350
63
  3
C8
350
64
  3
C9
350
65
  3
D0
350
66
  3
D1
350
67
  3
D2
350
68
  0
DICTIONARY
  5
511
102
{ACAD_REACTORS
330
C
102
}
330
C
100
AcDbDictionary
281
     1
  0
DICTIONARY
  5
69
102
{ACAD_REACTORS
330
C
102
}
330
C
100
AcDbDictionary
281
     1
  3
Standard
350
6A
  0
XRECORD
  5
50D
102
{ACAD_REACTORS
330
C
102
}
330
C
100
AcDbXrecord
280
     1
 90
        1
330
6A
  0
DICTIONARY
  5
507
102
{ACAD_REACTORS
330
C
102
}
330
C
100
AcDbDictionary
281
     1
  3
CANNOSCALE
350
508
  3
CENTEREXE
350
512
  3
CENTERLTYPEFILE
350
513
  3
CMLEADERSTYLE
350
50F
  3
CTABLESTYLE
350
50E
  0
LAYOUT
  5
1E
102
{ACAD_REACTORS
330
1A
102
}
330
1A
100
AcDbPlotSettings
  1

  2
none_device
  4

  6

 40
0.0
 41
0.0
 42
0.0
 43
0.0
 44
0.0
 45
0.0
 46
0.0
 47
0.0
 48
0.0
 49
0.0
140
0.0
141
0.0
142
1.0
143
1.0
 70
   688
 72
     1
 73
     0
 74
     5
  7

 75
    16
 76
     0
 77
     2
 78
   300
147
1.0
148
0.0
149
0.0
100
AcDbLayout
  1
Layout1
 70
     1
 71
     1
 10
0.0
 20
0.0
 11
420.0
 21
297.0
 12
0.0
 22
0.0
 32
0.0
 14
1.0000000000E+20
 24
1.0000000000E+20
 34
1.0000000000E+20
 15
-1.0000000000E+20
 25
-1.0000000000E+20
 35
-1.0000000000E+20
146
0.0
 13
0.0
 23
0.0
 33
0.0
 16
1.0
 26
0.0
 36
0.0
 17
0.0
 27
1.0
 37
0.0
 76
     0
330
1B
  0
LAYOUT
  5
26
102
{ACAD_REACTORS
330
1A
102
}
330
1A
100
AcDbPlotSettings
  1

  2
none_device
  4

  6

 40
0.0
 41
0.0
 42
0.0
 43
0.0
 44
0.0
 45
0.0
 46
0.0
 47
0.0
 48
0.0
 49
0.0
140
0.0
141
0.0
142
1.0
143
1.0
 70
   688
 72
     1
 73
     0
 74
     5
  7

 75
    16
 76
     0
 77
     2
 78
   300
147
1.0
148
0.0
149
0.0
100
AcDbLayout
  1
Layout2
 70
     1
 71
     2
 10
0.0
 20
0.0
 11
0.0
 21
0.0
 12
0.0
 22
0.0
 32
0.0
 14
0.0
 24
0.0
 34
0.0
 15
0.0
 25
0.0
 35
0.0
146
0.0
 13
0.0
 23
0.0
 33
0.0
 16
1.0
 26
0.0
 36
0.0
 17
0.0
 27
1.0
 37
0.0
 76
     0
330
23
  0
LAYOUT
  5
22
102
{ACAD_REACTORS
330
1A
102
}
330
1A
100
AcDbPlotSettings
  1

  2
none_device
  4
Letter_(8.50_x_11.00_Inches)
  6

 40
6.35
 41
6.35
 42
6.35000508
 43
6.35000508
 44
215.9
 45
279.4
 46
0.0
 47
0.0
 48
0.0
 49
0.0
140
0.0
141
0.0
142
1.0
143
1.0
 70
  1712
 72
     1
 73
     0
 74
     0
  7

 75
     0
 76
     0
 77
     2
 78
   300
147
1.0
148
0.0
149
0.0
100
AcDbLayout
  1
Model
 70
     1
 71
     0
 10
0.0
 20
0.0
 11
210.0
 21
297.0
 12
0.0
 22
0.0
 32
0.0
 14
0.0
 24
0.0
 34
0.0
 15
210.0
 25
297.0
 35
0.0
146
0.0
 13
0.0
 23
0.0
 33
0.0
 16
1.0
 26
0.0
 36
0.0
 17
0.0
 27
1.0
 37
0.0
 76
     0
330
1F
331
29
  0
MATERIAL
  5
45
102
{ACAD_REACTORS
330
43
102
}
330
43
100
AcDbMaterial
  1
ByBlock
  0
MATERIAL
  5
44
102
{ACAD_REACTORS
330
43
102
}
330
43
100
AcDbMaterial
  1
ByLayer
  0
MATERIAL
  5
46
102
{ACAD_REACTORS
330
43
102
}
330
43
100
AcDbMaterial
  1
Global
  0
MLEADERSTYLE
  5
6C
102
{ACAD_REACTORS
330
6B
102
}
330
6B
100
AcDbMLeaderStyle
170
     2
171
     1
172
     0
 90
        2
 40
0.0
 41
0.0
173
     1
 91
-1056964608
340
14
 92
       -2
290
     1
 42
2.0
291
     1
 43
8.0
  3
Standard
341
0
 44
4.0
300

342
11
174
     1
178
     6
175
     1
176
     0
 93
-1056964608
 45
4.0
292
     0
297
     0
 46
4.0
343
0
 94
-1056964608
 47
1.0
 49
1.0
140
1.0
293
     1
141
0.0
294
     1
177
     0
142
1.0
295
     0
296
     0
143
3.75
1001
ACAD_MLEADERVER
1070
     2
  0
MLINESTYLE
  5
18
102
{ACAD_REACTORS
330
17
102
}
330
17
100
AcDbMlineStyle
  2
Standard
 70
     0
  3

 62
   256
 51
90.0
 52
90.0
 71
     2
 49
0.5
 62
   256
  6
BYLAYER
 49
-0.5
 62
   256
  6
BYLAYER
  0
ACDBPLACEHOLDER
  5
F
102
{ACAD_REACTORS
330
E
102
}
330
E
  0
SCALE
  5
48
102
{ACAD_REACTORS
330
47
102
}
330
47
100
AcDbScale
 70
     0
300
1:1
140
1.0
141
1.0
290
     1
  0
SCALE
  5
49
102
{ACAD_REACTORS
330
47
102
}
330
47
100
AcDbScale
 70
     0
300
1:2
140
1.0
141
2.0
290
     0
  0
SCALE
  5
4A
102
{ACAD_REACTORS
330
47
102
}
330
47
100
AcDbScale
 70
     0
300
1:4
140
1.0
141
4.0
290
     0
  0
SCALE
  5
4B
102
{ACAD_REACTORS
330
47
102
}
330
47
100
AcDbScale
 70
     0
300
1:5
140
1.0
141
5.0
290
     0
  0
SCALE
  5
4C
102
{ACAD_REACTORS
330
47
102
}
330
47
100
AcDbScale
 70
     0
300
1:8
140
1.0
141
8.0
290
     0
  0
SCALE
  5
4D
102
{ACAD_REACTORS
330
47
102
}
330
47
100
AcDbScale
 70
     0
300
1:10
140
1.0
141
10.0
290
     0
  0
SCALE
  5
4E
102
{ACAD_REACTORS
330
47
102
}
330
47
100
AcDbScale
 70
     0
300
1:16
140
1.0
141
16.0
290
     0
  0
SCALE
  5
4F
102
{ACAD_REACTORS
330
47
102
}
330
47
100
AcDbScale
 70
     0
300
1:20
140
1.0
141
20.0
290
     0
  0
SCALE
  5
50
102
{ACAD_REACTORS
330
47
102
}
330
47
100
AcDbScale
 70
     0
300
1:30
140
1.0
141
30.0
290
     0
  0
SCALE
  5
51
102
{ACAD_REACTORS
330
47
102
}
330
47
100
AcDbScale
 70
     0
300
1:40
140
1.0
141
40.0
290
     0
  0
SCALE
  5
52
102
{ACAD_REACTORS
330
47
102
}
330
47
100
AcDbScale
 70
     0
300
1:50
140
1.0
141
50.0
290
     0
  0
SCALE
  5
53
102
{ACAD_REACTORS
330
47
102
}
330
47
100
AcDbScale
 70
     0
300
1:100
140
1.0
141
100.0
290
     0
  0
SCALE
  5
54
102
{ACAD_REACTORS
330
47
102
}
330
47
100
AcDbScale
 70
     0
300
2:1
140
2.0
141
1.0
290
     0
  0
SCALE
  5
55
102
{ACAD_REACTORS
330
47
102
}
330
47
100
AcDbScale
 70
     0
300
4:1
140
4.0
141
1.0
290
     0
  0
SCALE
  5
56
102
{ACAD_REACTORS
330
47
102
}
330
47
100
AcDbScale
 70
     0
300
8:1
140
8.0
141
1.0
290
     0
  0
SCALE
  5
57
102
{ACAD_REACTORS
330
47
102
}
330
47
100
AcDbScale
 70
     0
300
10:1
140
10.0
141
1.0
290
     0
  0
SCALE
  5
58
102
{ACAD_REACTORS
330
47
102
}
330
47
100
AcDbScale
 70
     0
300
100:1
140
100.0
141
1.0
290
     0
  0
SCALE
  5
59
102
{ACAD_REACTORS
330
47
102
}
330
47
100
AcDbScale
 70
     0
300
1/128" = 1'-0"
140
0.0078125
141
12.0
290
     0
  0
SCALE
  5
5A
102
{ACAD_REACTORS
330
47
102
}
330
47
100
AcDbScale
 70
     0
300
1/64" = 1'-0"
140
0.015625
141
12.0
290
     0
  0
SCALE
  5
5B
102
{ACAD_REACTORS
330
47
102
}
330
47
100
AcDbScale
 70
     0
300
1/32" = 1'-0"
140
0.03125
141
12.0
290
     0
  0
SCALE
  5
5C
102
{ACAD_REACTORS
330
47
102
}
330
47
100
AcDbScale
 70
     0
300
1/16" = 1'-0"
140
0.0625
141
12.0
290
     0
  0
SCALE
  5
5D
102
{ACAD_REACTORS
330
47
102
}
330
47
100
AcDbScale
 70
     0
300
3/32" = 1'-0"
140
0.09375
141
12.0
290
     0
  0
SCALE
  5
5E
102
{ACAD_REACTORS
330
47
102
}
330
47
100
AcDbScale
 70
     0
300
1/8" = 1'-0"
140
0.125
141
12.0
290
     0
  0
SCALE
  5
5F
102
{ACAD_REACTORS
330
47
102
}
330
47
100
AcDbScale
 70
     0
300
3/16" = 1'-0"
140
0.1875
141
12.0
290
     0
  0
SCALE
  5
60
102
{ACAD_REACTORS
330
47
102
}
330
47
100
AcDbScale
 70
     0
300
1/4" = 1'-0"
140
0.25
141
12.0
290
     0
  0
SCALE
  5
61
102
{ACAD_REACTORS
330
47
102
}
330
47
100
AcDbScale
 70
     0
300
3/8" = 1'-0"
140
0.375
141
12.0
290
     0
  0
SCALE
  5
62
102
{ACAD_REACTORS
330
47
102
}
330
47
100
AcDbScale
 70
     0
300
1/2" = 1'-0"
140
0.5
141
12.0
290
     0
  0
SCALE
  5
63
102
{ACAD_REACTORS
330
47
102
}
330
47
100
AcDbScale
 70
     0
300
3/4" = 1'-0"
140
0.75
141
12.0
290
     0
  0
SCALE
  5
64
102
{ACAD_REACTORS
330
47
102
}
330
47
100
AcDbScale
 70
     0
300
1" = 1'-0"
140
1.0
141
12.0
290
     0
  0
SCALE
  5
65
102
{ACAD_REACTORS
330
47
102
}
330
47
100
AcDbScale
 70
     0
300
1-1/2" = 1'-0"
140
1.5
141
12.0
290
     0
  0
SCALE
  5
66
102
{ACAD_REACTORS
330
47
102
}
330
47
100
AcDbScale
 70
     0
300
3" = 1'-0"
140
3.0
141
12.0
290
     0
  0
SCALE
  5
67
102
{ACAD_REACTORS
330
47
102
}
330
47
100
AcDbScale
 70
     0
300
6" = 1'-0"
140
6.0
141
12.0
290
     0
  0
SCALE
  5
68
102
{ACAD_REACTORS
330
47
102
}
330
47
100
AcDbScale
 70
     0
300
1'-0" = 1'-0"
140
12.0
141
12.0
290
     0
  0
TABLESTYLE
  5
6A
102
{ACAD_REACTORS
330
69
102
}
102
{ACAD_XDICTIONARY
360
509
102
}
330
69
100
AcDbTableStyle
  3
Standard
 70
     0
 71
     0
 40
0.06
 41
0.06
280
     0
281
     0
  7
Standard
140
4.5
170
     2
 62
     0
 63
   257
283
     0
274
    -2
284
     1
 64
     0
275
    -2
285
     1
 65
     0
276
    -2
286
     1
 66
     0
277
    -2
287
     1
 67
     0
278
    -2
288
     1
 68
     0
279
    -2
289
     1
 69
     0
  7
Standard
140
6.0
170
     5
 62
     0
 63
   257
283
     0
274
    -2
284
     1
 64
     0
275
    -2
285
     1
 65
     0
276
    -2
286
     1
 66
     0
277
    -2
287
     1
 67
     0
278
    -2
288
     1
 68
     0
279
    -2
289
     1
 69
     0
  7
Standard
140
4.5
170
     5
 62
     0
 63
   257
283
     0
274
    -2
284
     1
 64
     0
275
    -2
285
     1
 65
     0
276
    -2
286
     1
 66
     0
277
    -2
287
     1
 67
     0
278
    -2
288
     1
 68
     0
279
    -2
289
     1
 69
     0
  0
DICTIONARYVAR
  5
508
102
{ACAD_REACTORS
330
507
102
}
330
507
100
DictionaryVariables
280
     0
  1
1:1
  0
DICTIONARYVAR
  5
512
102
{ACAD_REACTORS
330
507
102
}
330
507
100
DictionaryVariables
280
     0
  1
3.500000
  0
DICTIONARYVAR
  5
513
102
{ACAD_REACTORS
330
507
102
}
330
507
100
DictionaryVariables
280
     0
  1
acadiso.lin
  0
DICTIONARYVAR
  5
50F
102
{ACAD_REACTORS
330
507
102
}
330
507
100
DictionaryVariables
280
     0
  1
Standard
  0
DICTIONARYVAR
  5
50E
102
{ACAD_REACTORS
330
507
102
}
330
507
100
DictionaryVariables
280
     0
  1
Standard
  0
DICTIONARY
  5
509
330
6A
100
AcDbDictionary
280
     1
281
     1
  3
ACAD_ROUNDTRIP_2008_TABLESTYLE_CELLSTYLEMAP
360
50B
  3
ACAD_XREC_ROUNDTRIP
360
50A
  0
CELLSTYLEMAP
  5
50B
102
{ACAD_REACTORS
330
509
102
}
330
509
100
AcDbCellStyleMap
 90
        3
300
CELLSTYLE
  1
TABLEFORMAT_BEGIN
 90
        5
170
     1
 91
        0
 92
    32768
 62
   257
 93
        1
300
CONTENTFORMAT
  1
CONTENTFORMAT_BEGIN
 90
        0
 91
        0
 92
        4
 93
        0
300

 40
0.0
140
1.0
 94
        5
 62
     0
340
11
144
6.0
309
CONTENTFORMAT_END
171
     1
301
MARGIN
  1
CELLMARGIN_BEGIN
 40
1.5
 40
1.5
 40
1.5
 40
1.5
 40
1.5
 40
1.5
309
CELLMARGIN_END
 94
        6
 95
        1
302
GRIDFORMAT
  1
GRIDFORMAT_BEGIN
 90
        0
 91
        1
 62
     0
 92
       -2
340
14
 93
        0
 40
0.045
309
GRIDFORMAT_END
 95
        2
302
GRIDFORMAT
  1
GRIDFORMAT_BEGIN
 90
        0
 91
        1
 62
     0
 92
       -2
340
14
 93
        0
 40
0.045
309
GRIDFORMAT_END
 95
        4
302
GRIDFORMAT
  1
GRIDFORMAT_BEGIN
 90
        0
 91
        1
 62
     0
 92
       -2
340
14
 93
        0
 40
0.045
309
GRIDFORMAT_END
 95
        8
302
GRIDFORMAT
  1
GRIDFORMAT_BEGIN
 90
        0
 91
        1
 62
     0
 92
       -2
340
14
 93
        0
 40
0.045
309
GRIDFORMAT_END
 95
       16
302
GRIDFORMAT
  1
GRIDFORMAT_BEGIN
 90
        0
 91
        1
 62
     0
 92
       -2
340
14
 93
        0
 40
0.045
309
GRIDFORMAT_END
 95
       32
302
GRIDFORMAT
  1
GRIDFORMAT_BEGIN
 90
        0
 91
        1
 62
     0
 92
       -2
340
14
 93
        0
 40
0.045
309
GRIDFORMAT_END
309
TABLEFORMAT_END
  1
CELLSTYLE_BEGIN
 90
        1
 91
        1
300
_TITLE
309
CELLSTYLE_END
300
CELLSTYLE
  1
TABLEFORMAT_BEGIN
 90
        5
170
     1
 91
        0
 92
        0
 62
   257
 93
        1
300
CONTENTFORMAT
  1
CONTENTFORMAT_BEGIN
 90
        0
 91
        0
 92
        4
 93
        0
300

 40
0.0
140
1.0
 94
        5
 62
     0
340
11
144
4.5
309
CONTENTFORMAT_END
171
     1
301
MARGIN
  1
CELLMARGIN_BEGIN
 40
1.5
 40
1.5
 40
1.5
 40
1.5
 40
1.5
 40
1.5
309
CELLMARGIN_END
 94
        6
 95
        1
302
GRIDFORMAT
  1
GRIDFORMAT_BEGIN
 90
        0
 91
        1
 62
     0
 92
       -2
340
14
 93
        0
 40
0.045
309
GRIDFORMAT_END
 95
        2
302
GRIDFORMAT
  1
GRIDFORMAT_BEGIN
 90
        0
 91
        1
 62
     0
 92
       -2
340
14
 93
        0
 40
0.045
309
GRIDFORMAT_END
 95
        4
302
GRIDFORMAT
  1
GRIDFORMAT_BEGIN
 90
        0
 91
        1
 62
     0
 92
       -2
340
14
 93
        0
 40
0.045
309
GRIDFORMAT_END
 95
        8
302
GRIDFORMAT
  1
GRIDFORMAT_BEGIN
 90
        0
 91
        1
 62
     0
 92
       -2
340
14
 93
        0
 40
0.045
309
GRIDFORMAT_END
 95
       16
302
GRIDFORMAT
  1
GRIDFORMAT_BEGIN
 90
        0
 91
        1
 62
     0
 92
       -2
340
14
 93
        0
 40
0.045
309
GRIDFORMAT_END
 95
       32
302
GRIDFORMAT
  1
GRIDFORMAT_BEGIN
 90
        0
 91
        1
 62
     0
 92
       -2
340
14
 93
        0
 40
0.045
309
GRIDFORMAT_END
309
TABLEFORMAT_END
  1
CELLSTYLE_BEGIN
 90
        2
 91
        1
300
_HEADER
309
CELLSTYLE_END
300
CELLSTYLE
  1
TABLEFORMAT_BEGIN
 90
        5
170
     1
 91
        0
 92
        0
 62
   257
 93
        1
300
CONTENTFORMAT
  1
CONTENTFORMAT_BEGIN
 90
        0
 91
        0
 92
        4
 93
        0
300

 40
0.0
140
1.0
 94
        2
 62
     0
340
11
144
4.5
309
CONTENTFORMAT_END
171
     1
301
MARGIN
  1
CELLMARGIN_BEGIN
 40
1.5
 40
1.5
 40
1.5
 40
1.5
 40
1.5
 40
1.5
309
CELLMARGIN_END
 94
        6
 95
        1
302
GRIDFORMAT
  1
GRIDFORMAT_BEGIN
 90
        0
 91
        1
 62
     0
 92
       -2
340
14
 93
        0
 40
0.045
309
GRIDFORMAT_END
 95
        2
302
GRIDFORMAT
  1
GRIDFORMAT_BEGIN
 90
        0
 91
        1
 62
     0
 92
       -2
340
14
 93
        0
 40
0.045
309
GRIDFORMAT_END
 95
        4
302
GRIDFORMAT
  1
GRIDFORMAT_BEGIN
 90
        0
 91
        1
 62
     0
 92
       -2
340
14
 93
        0
 40
0.045
309
GRIDFORMAT_END
 95
        8
302
GRIDFORMAT
  1
GRIDFORMAT_BEGIN
 90
        0
 91
        1
 62
     0
 92
       -2
340
14
 93
        0
 40
0.045
309
GRIDFORMAT_END
 95
       16
302
GRIDFORMAT
  1
GRIDFORMAT_BEGIN
 90
        0
 91
        1
 62
     0
 92
       -2
340
14
 93
        0
 40
0.045
309
GRIDFORMAT_END
 95
       32
302
GRIDFORMAT
  1
GRIDFORMAT_BEGIN
 90
        0
 91
        1
 62
     0
 92
       -2
340
14
 93
        0
 40
0.045
309
GRIDFORMAT_END
309
TABLEFORMAT_END
  1
CELLSTYLE_BEGIN
 90
        3
 91
        2
300
_DATA
309
CELLSTYLE_END
  0
XRECORD
  5
50A
102
{ACAD_REACTORS
330
509
102
}
330
509
100
AcDbXrecord
280
     1
102
ACAD_ROUNDTRIP_PRE2007_TABLESTYLE
 90
        4
 91
        0
  1

 92
        4
 93
        0
  2

 94
        4
 95
        0
  3

  0
ENDSEC
  0
EOF
